<?xml version="1.0" standalone="no"?>
<!DOCTYPE svg PUBLIC "-//W3C//DTD SVG 1.1//EN" "http://www.w3.org/Graphics/SVG/1.1/DTD/svg11.dtd" >
<svg xmlns="http://www.w3.org/2000/svg" xmlns:xlink="http://www.w3.org/1999/xlink" version="1.1">
<metadata>
Created by FontForge 20201107 at Tue Aug 24 19:51:47 2021
 By 
Copyright (c) 2018 by TRF. All rights reserved.
</metadata>
<defs>
<font id="AstonScriptBold-Bold" horiz-adv-x="3770" >
  <font-face 
    font-family="Aston Script Bold"
    font-weight="700"
    font-stretch="normal"
    units-per-em="1000"
    panose-1="2 0 8 7 0 0 0 2 0 2"
    ascent="800"
    descent="-200"
    x-height="504"
    cap-height="1046"
    bbox="-640 -657 3783 1394"
    underline-thickness="50"
    underline-position="-100"
    unicode-range="U+0020-20AC"
  />
<missing-glyph horiz-adv-x="360" 
 />
    <glyph glyph-name=".notdef" horiz-adv-x="360" 
 />
    <glyph glyph-name=".null" horiz-adv-x="0" 
 />
    <glyph glyph-name="nonmarkingreturn" horiz-adv-x="333" 
 />
    <glyph glyph-name="space" unicode=" " horiz-adv-x="360" 
 />
    <glyph glyph-name="exclam" unicode="!" horiz-adv-x="527" 
d="M597 885q17 0 32 -11.5t15 -31.5q0 -8 -6.5 -25t-25.5 -43q-72 -100 -132 -184.5t-112 -162.5q-43 -64 -85.5 -129t-93.5 -142q-9 -14 -20 -30t-20 -30l-17 9q66 104 115.5 186t88.5 154q33 59 62 115t61 118l88 169q10 19 23 28.5t27 9.5zM91 66q21 0 35.5 -13.5
t14.5 -33.5t-14.5 -33.5t-35.5 -13.5t-35.5 13.5t-14.5 33.5t14.5 33.5t35.5 13.5z" />
    <glyph glyph-name="quotedbl" unicode="&#x22;" horiz-adv-x="362" 
d="M286 726q21 0 35.5 -13.5t14.5 -33.5q0 -25 -16 -47.5t-36 -36.5q-32 -16 -52 -16q-5 0 -10.5 1.5t-13.5 3.5l7 20q5 -3 10.5 -4.5t8.5 -1.5q18 0 32 8q8 4 14.5 10t7.5 12q-1 1 -2.5 2t-6.5 2q-18 2 -31 15.5t-13 31.5q0 20 15 33.5t36 13.5zM393 726q21 0 35.5 -13.5
t14.5 -33.5q0 -25 -16 -47.5t-36 -36.5q-32 -16 -52 -16q-5 0 -10.5 1.5t-13.5 3.5l7 20q5 -3 10.5 -4.5t8.5 -1.5q18 0 32 8q8 4 14.5 10t7.5 12q-1 1 -2.5 2t-6.5 2q-18 2 -31 15.5t-13 31.5q0 20 15 33.5t36 13.5z" />
    <glyph glyph-name="numbersign" unicode="#" horiz-adv-x="722" 
d="M622 455q32 0 45.5 -10t13.5 -24q0 -11 -11.5 -19.5t-34.5 -8.5h-5t-12.5 1t-27.5 3t-50 6q-12 -18 -23.5 -37t-25 -40t-28.5 -46.5t-34 -56.5q17 -2 35 -3t39 -3l86 -7l-1 -20q-47 2 -88.5 3t-74.5 2h-12q-15 -26 -31.5 -51.5t-31.5 -51.5l-15 8q15 28 27.5 50.5
t23.5 45.5q-7 0 -12 0.5t-11 0.5q-29 1 -54 1h-48q-10 0 -19.5 -0.5t-19.5 -0.5h-33l-63 -105l-15 8l49 96q-12 -1 -25.5 -0.5t-27.5 0.5q-29 0 -43 10t-14 23q0 11 11.5 20t34.5 9q2 -1 5 -1q2 0 5.5 -0.5t8.5 -0.5l72 -9q32 63 51.5 104t37.5 79q-29 2 -62.5 5t-70.5 7v19
l146 -5q5 9 9.5 21t8.5 22q3 7 7.5 15t6.5 15q11 23 23.5 32.5t23.5 9.5q10 -1 16.5 -8t6.5 -20q0 -17 -15 -41q-8 -13 -15.5 -23t-15.5 -24q54 -2 92.5 -2h73.5l35 76q11 23 22.5 32.5t25.5 9.5q21 -2 21 -27q0 -8 -3 -18.5t-11 -23.5l-31 -48h20q8 0 16 0.5t16 0.5z
M217 244q38 -5 80.5 -9t102.5 -10q16 31 29 56.5t24 47.5t20 41l18 38l-28 4q-29 3 -61 6.5t-74 7.5z" />
    <glyph glyph-name="dollar" unicode="$" horiz-adv-x="638" 
d="M747 892q12 0 12 -15q0 -11 -7.5 -28t-27.5 -41q19 -23 19 -59q0 -25 -11.5 -51.5t-34.5 -49.5l-16 10q21 20 32 44t11 47q0 24 -13 44l-83 -100l-22 -27q-22 -27 -42.5 -52.5t-40.5 -49.5l-8 5l58 88q8 12 15.5 24t15.5 24q19 28 36.5 54.5t34.5 55.5q-5 2 -9.5 2h-9.5
q-57 -6 -93 -41t-55.5 -87t-26.5 -115t-7 -126q0 -18 0.5 -36.5t0.5 -35.5v-62q0 -28 -1 -51t-4 -41q-10 -54 -42 -105t-76.5 -91t-95.5 -64.5t-99 -24.5q-35 0 -61 10q-3 -5 -6.5 -9t-5.5 -9q-19 -31 -35 -44.5t-25 -13.5q-12 0 -12 15q0 11 10.5 31t33.5 48l3 5
q-14 16 -22.5 37.5t-8.5 43.5q0 21 6.5 42.5t18.5 41.5t29.5 37.5t40.5 29.5l8 -16q-37 -21 -60 -57.5t-23 -79.5q0 -19 5.5 -35.5t18.5 -29.5q24 29 46 57t43 54l19 24l117 145l8 -6l-107 -152q-20 -28 -38.5 -57.5t-38.5 -61.5l-14 -23q14 -5 35 -5q26 0 50 15.5t46 40
t40.5 55.5t33.5 62t25.5 60t16.5 49q9 35 17 74t16 77q16 83 35 162.5t48 142t73.5 101t112.5 38.5q8 0 16 -1t14 -3l4 7q18 29 33 41t24 12z" />
    <glyph glyph-name="percent" unicode="%" horiz-adv-x="715" 
d="M574 425q23 0 34 -17t11 -45q0 -26 -10 -60t-27 -67q-13 -24 -29 -46t-35 -38.5t-40.5 -26.5t-44.5 -10q-29 0 -42 18.5t-13 47.5q0 22 6.5 48t20.5 53h-1q12 24 28.5 49t38 45.5t47.5 34t56 14.5zM535 255q20 39 33.5 77t13.5 61q0 16 -9 16q-13 0 -29 -12.5t-32.5 -33
t-32 -46.5t-28.5 -53q-15 -32 -24.5 -60.5t-9.5 -47.5q0 -23 15 -23q10 0 23 10t26.5 27t27.5 39t26 46zM371 466q-14 -25 -31.5 -47t-37.5 -39t-42.5 -27t-46.5 -10q-23 0 -34 18t-11 46q0 26 8.5 58t25.5 64q13 25 29 47.5t35.5 40t41 27.5t45.5 10q30 0 43 -18.5
t13 -47.5q0 -26 -10 -58t-28 -64zM249 508q-19 -38 -32 -74.5t-13 -58.5q0 -16 9 -16q12 0 27 10.5t30 28t30 40.5t27 47q18 35 30 69.5t12 57.5q0 24 -15 24q-10 0 -23 -10.5t-27 -28.5t-28.5 -41t-26.5 -48zM570 618q-20 -32 -39 -61.5t-37.5 -59.5t-38.5 -62.5t-43 -69.5
l-203 -339l-18 11q62 119 105 203t74 147q26 54 47 100.5t44 95.5l33 72q14 31 32 45t33 14q14 0 22.5 -10t8.5 -28q0 -12 -4.5 -26.5t-15.5 -31.5z" />
    <glyph glyph-name="ampersand" unicode="&#x26;" horiz-adv-x="1411" 
d="M1221 844q-53 -36 -137.5 -87t-189.5 -112q-4 -27 -6.5 -53t-3.5 -52q51 16 104.5 25.5t116.5 9.5q30 0 61.5 -7.5t57 -24t42 -42t16.5 -62.5q0 -53 -32.5 -116.5t-89 -129.5t-133 -129.5t-164.5 -116.5q-26 -117 -78 -220q25 13 53.5 29t56.5 33.5t54 36t46 35.5
q50 42 88.5 90.5t58.5 99.5l18 -8q-21 -52 -61 -102t-93 -95q-51 -42 -114 -81t-123 -66q-40 -70 -93 -128.5t-123 -104.5q-114 -75 -275 -107l-1 13q80 18 143 51t114 73q45 35 81.5 78t63.5 91q-42 -13 -85 -21.5t-90 -8.5q-58 0 -101.5 12t-73.5 34t-48 51.5t-24 65.5
q-38 7 -72 22t-59.5 39t-40.5 57.5t-15 77.5q0 87 36.5 161t98 138.5t143.5 120.5t175 106q74 40 151.5 76.5t153.5 71.5l42 19q14 52 37.5 109.5t55.5 111.5t74 99.5t93 72.5q46 25 84.5 36t67.5 11q45 0 69 -21.5t24 -56.5q0 -42 -36.5 -95.5t-117.5 -109.5zM797 83
q5 41 8 84.5t7 89.5q5 57 9 111t12 113q-96 -49 -180.5 -122t-152.5 -157q-41 -51 -74.5 -103t-57 -102.5t-36 -97.5t-12.5 -88v-1q5 -1 11 -0.5t11 0.5q51 0 107 13t112.5 35t112.5 52t108 63q5 28 8.5 54.5t6.5 55.5zM1105 556q-56 0 -111 -14.5t-111 -37.5v-27
q0 -29 1 -56.5t3 -56.5q2 -30 3.5 -61t1.5 -64q0 -51 -3 -100.5t-10 -97.5q73 56 136 116.5t109.5 119t73 111.5t26.5 92q0 22 -10 36.5t-26.5 23.5t-38 12.5t-44.5 3.5zM383 167q40 55 89.5 107t107.5 98.5t123 85.5t135 66q4 27 7.5 49.5t8.5 49.5q-72 -42 -147 -87.5
t-147 -94t-139 -99t-123 -102.5q-81 -75 -130 -151t-49 -152q0 -25 11 -44.5t30 -34t43 -24t51 -15.5q0 4 -0.5 10.5t-0.5 11.5q0 72 34 156.5t96 169.5zM1210 860q63 43 90 86t27 77q0 32 -22 52.5t-61 20.5q-46 0 -106 -31q-46 -27 -84.5 -70t-68.5 -93.5t-50.5 -102.5
t-30.5 -97q91 42 169.5 80t136.5 78zM498 -346q49 0 96.5 10t98.5 27q23 46 41 97.5t32 107.5q-97 -49 -198 -77.5t-200 -28.5q-11 0 -21 0.5t-22 1.5h-5q5 -63 47 -100.5t131 -37.5z" />
    <glyph glyph-name="quotesingle" unicode="'" horiz-adv-x="264" 
d="M281 726q21 0 35.5 -13.5t14.5 -33.5q0 -25 -16 -47.5t-36 -36.5q-32 -16 -52 -16q-5 0 -10.5 1.5t-13.5 3.5l7 20q5 -3 10.5 -4.5t8.5 -1.5q18 0 32 8q8 4 14.5 10t7.5 12q-1 1 -2.5 2t-6.5 2q-18 2 -31 15.5t-13 31.5q0 20 15 33.5t36 13.5z" />
    <glyph glyph-name="parenleft" unicode="(" horiz-adv-x="417" 
d="M143 453q19 44 46 92.5t60.5 95.5t73.5 89.5t85 75t95 51.5t104 19v-19q-51 0 -105.5 -37t-106 -97.5t-98 -139t-82.5 -161.5q-23 -53 -42 -107.5t-33 -108t-21.5 -105t-7.5 -96.5q0 -53 11.5 -95.5t38.5 -71.5l-13 -13q-49 53 -69 120.5t-20 141.5q0 48 7 97.5
t18.5 96.5t26.5 90.5t32 81.5z" />
    <glyph glyph-name="parenright" unicode=")" horiz-adv-x="458" 
d="M316 220q-19 -44 -46 -92.5t-60.5 -95.5t-73.5 -89.5t-85 -75t-95 -51.5t-104 -19v19q51 0 105.5 37t106 97.5t98 139t82.5 161.5q23 52 42 107t33 108.5t21.5 105t7.5 96.5q0 53 -11.5 95.5t-38.5 71.5l13 13q49 -53 69 -120.5t20 -141.5q0 -48 -7 -97.5t-18.5 -96.5
t-27 -91t-31.5 -81z" />
    <glyph glyph-name="asterisk" unicode="*" horiz-adv-x="523" 
d="M542 642q20 -4 27 -10t7 -15q-6 -19 -31 -19h-7.5t-10.5 2l-53 15q-17 5 -30.5 9t-30.5 8q5 -9 12.5 -18.5t15.5 -20.5q17 -23 31 -47q8 -14 8 -24t-6 -17.5t-19 -8.5q-16 3 -24 25q-4 10 -7.5 21t-7.5 20q-6 17 -9 28.5t-11 26.5q-5 -14 -9.5 -27t-9.5 -28l-20 -57
q-6 -17 -16 -24t-21 -7q-12 2 -12 15q0 11 3 22q8 16 19.5 35t19.5 33t12 20t12 20q-13 -8 -23 -15t-23 -16t-28 -19.5t-29 -19.5q-20 -13 -33 -13q-5 0 -12.5 3.5t-7.5 10.5q0 12 11.5 20.5t20.5 13.5q28 15 57 27q17 8 30 13.5t30 14.5q-16 2 -30.5 2.5t-30.5 1.5
q-14 1 -27.5 1t-27.5 2q-20 5 -26.5 11.5t-6.5 17.5q4 15 30 15q3 0 8 -0.5t16 -2.5q15 -3 29 -7l28 -8q13 -4 22.5 -6.5t23.5 -5.5l-27 41q-7 11 -15 22.5t-15 22.5q-1 0 -1 1v2v-1q-2 6 -4 9t-2 11q0 23 26 25q12 -3 29 -35q6 -15 8.5 -25t7.5 -24t6.5 -22t6.5 -20
q7 17 13 35.5t11 35.5q3 11 7 21.5t7 21.5q18 35 39 35q12 -2 12 -18q0 -4 -2 -10.5t-7 -16.5q-7 -14 -14 -27.5t-15 -26.5v1q-9 -17 -13 -25l-12 -24l22 16l22 16q12 9 26.5 19.5t28.5 19.5q22 14 35 14q8 0 13 -4.5t5 -12.5q0 -11 -11.5 -19t-19.5 -12l-50 -25
q-20 -10 -33 -15t-32 -16l41 -2q17 -1 36 -2.5t38 -3.5z" />
    <glyph glyph-name="plus" unicode="+" horiz-adv-x="626" 
d="M519 367q23 0 35 -9t12 -22q-2 -18 -18.5 -24t-32.5 -6q-50 0 -99 3l-78 4l-111 -160l-17 -25l-15 9l105 177q-28 1 -61.5 2t-72.5 2h-37.5t-40.5 1v18l232 12q21 38 36.5 67.5t32.5 61.5l15 28q9 17 20 25.5t21 8.5q11 0 18.5 -7t7.5 -20q0 -16 -15 -37l-89 -123
q25 2 46.5 3.5t46.5 4.5l58 6h1z" />
    <glyph glyph-name="comma" unicode="," horiz-adv-x="271" 
d="M93 66q21 0 35.5 -13.5t14.5 -33.5q0 -25 -16 -47.5t-36 -36.5q-32 -16 -52 -16q-5 0 -10.5 1.5t-13.5 3.5l7 20q5 -3 10.5 -4.5t8.5 -1.5q18 0 32 8q8 4 14.5 10t7.5 12q-1 1 -2.5 2t-6.5 2q-18 2 -31 15.5t-13 31.5q0 20 15 33.5t36 13.5z" />
    <glyph glyph-name="hyphen" unicode="-" horiz-adv-x="708" 
d="M559 367q21 0 31.5 -10.5t10.5 -22.5q-2 -17 -19 -22.5t-32 -5.5q-47 0 -93 3q-8 0 -19 1t-19 1h-22.5t-23.5 1q-44 2 -106.5 3.5t-143.5 3.5v18q99 4 165 8t113 8q4 0 7 0.5t7 0.5q30 2 57.5 5t57.5 6z" />
    <glyph glyph-name="period" unicode="." horiz-adv-x="242" 
d="M62 66q21 0 35.5 -13.5t14.5 -33.5t-14.5 -33.5t-35.5 -13.5t-35.5 13.5t-14.5 33.5t14.5 33.5t35.5 13.5z" />
    <glyph glyph-name="slash" unicode="/" horiz-adv-x="557" 
d="M624 870l-528 -995l-55 29l529 995z" />
    <glyph glyph-name="zero" unicode="0" 
d="M2767 1168q108 0 209.5 -30t190.5 -96l-2 -16q-90 66 -192 94.5t-206 28.5q-49 0 -104.5 -8t-112 -22.5t-111.5 -35.5t-104 -47q-64 -38 -133.5 -92.5t-139.5 -121.5t-137.5 -143.5t-125.5 -157.5q2 -22 2 -46v-47q0 -30 -1.5 -60.5t-3.5 -62.5q-8 -96 -27 -181t-46 -151
q-14 -34 -34 -70.5t-47.5 -66.5t-62 -49t-77.5 -19q-48 0 -68.5 28t-20.5 74q0 72 29 158.5t79 178t115.5 184.5t139.5 180q-4 29 -8 56t-10 53q-72 -64 -138.5 -132t-127.5 -138q-66 -76 -132 -150t-136 -140t-146 -122t-162 -97t-184.5 -64t-213.5 -23q-104 0 -199 24.5
t-167 78.5t-114.5 139.5t-42.5 208.5q0 103 34 201t94 181t143.5 148t182.5 102q63 23 120 33t119 10h21t22 -1q4 8 9.5 20t13.5 26q32 55 77.5 97t101 70t119 42.5t131.5 14.5q131 0 244.5 -52t199.5 -154q44 -52 78 -116t57 -146q132 100 274.5 184.5t281.5 142.5
q103 42 216.5 70t232.5 30zM1230 277q115 112 244.5 228t271.5 223q-23 81 -57 146.5t-77 116.5q-78 94 -186 144.5t-233 50.5q-59 0 -116 -14t-108.5 -42.5t-95.5 -70.5t-75 -98h1q-2 -6 -5 -13t-6 -13q47 -6 89.5 -16t84 -24.5t82.5 -33t85 -41.5l-4 -9q-46 19 -88.5 34.5
t-84.5 26t-86 17.5t-92 10q-7 -23 -11 -46.5t-4 -50.5q0 -48 18 -97.5t50 -87.5q24 -26 56 -46.5t67.5 -34.5t73.5 -21.5t75 -7.5q39 0 70 3.5t59.5 11t56.5 18.5t60 25l5 -9q-32 -21 -61 -37t-59.5 -27t-65.5 -17t-80 -6q-83 0 -159.5 24.5t-138.5 86.5q-38 45 -60.5 100
t-22.5 119q0 26 3.5 50.5t10.5 50.5q-66 -2 -124.5 -13.5t-124.5 -38.5q-86 -35 -162.5 -94.5t-134.5 -137.5t-91.5 -170.5t-33.5 -192.5q0 -102 34.5 -179t94 -129.5t138 -79t167.5 -26.5q77 0 148 18.5t136.5 50t127 74t119 91t112 101t107.5 103.5zM2979 95
q-16 0 -26.5 11.5t-14.5 25.5q-22 -24 -45 -45.5t-46 -40.5q-30 -24 -58.5 -38.5t-48.5 -14.5q-35 0 -50 24t-15 54q0 51 20 109q-15 -19 -30.5 -36t-29.5 -33q-48 -51 -94 -83.5t-88 -32.5q-49 0 -75.5 24.5t-26.5 68.5q0 24 7.5 48.5t18.5 48.5t25 47t27 44t20.5 33.5
t14.5 23.5t15 23t22 32q-23 -28 -46 -55.5t-46 -56.5l-35 -43q-12 -15 -28 -33.5t-37 -42.5q-38 -41 -73.5 -72t-77 -52t-93.5 -31.5t-124 -10.5q-20 0 -41 5.5t-38.5 17t-28.5 29.5t-11 44q0 20 8 39.5t22 35t33.5 25t42.5 9.5q37 0 63 -23t26 -71h-18q0 38 -21.5 57
t-49.5 19q-17 0 -33 -7.5t-28 -20t-19 -29t-7 -34.5q0 -31 26 -54t74 -23q41 0 72.5 22t55.5 59t41 85t27.5 100t15.5 104.5t6 98.5q-16 -17 -31.5 -35t-31.5 -35l-165 -186l-13 15q48 57 86 99.5t70 77.5l87 97q2 25 12 50.5t24.5 46t33 33.5t36.5 13q14 0 14 -16
q0 -9 -5.5 -19.5t-13.5 -22.5t-18 -25t-20 -25q-8 -10 -14.5 -19t-12.5 -17q1 -24 4.5 -55t8.5 -62q6 -38 11 -79.5t5 -79.5q0 -53 -24.5 -104.5t-65.5 -86.5q43 22 86 57.5t72 68.5l67 78q30 36 62 75t61.5 74t54.5 63t40 43l4 6h-99v28h119l119 166h124l-82 -107l-44 -59
h96v-28h-119q-48 -63 -91 -124t-94 -133q-15 -21 -32.5 -46.5t-32.5 -51.5t-25.5 -51t-10.5 -45q0 -18 10.5 -30t36.5 -12q34 0 76 30.5t86 77.5q24 27 52 60t52 64q9 19 20 37t24 36q28 39 62 72.5t71.5 58.5t76.5 39.5t77 14.5q28 0 44.5 -13.5t16.5 -45.5q0 -27 -11 -56
t-23 -55q-15 -29 -31 -55t-32 -49q-30 -41 -65 -83q1 -13 7 -24t18 -11q17 0 39.5 15.5t44.5 37t41.5 44.5t31.5 37q5 6 11.5 14t17 22.5t28 36.5t44.5 57q20 26 38.5 49t35.5 40t32.5 27t29.5 10q24 0 37.5 -14.5t13.5 -39.5q0 -22 -19 -65.5t-48 -96.5q24 26 54 56.5
t60 56.5q16 15 38.5 32.5t47.5 33.5t51 26.5t50 10.5q23 0 39.5 -14t16.5 -40q0 -20 -9 -46t-24 -55t-34.5 -61t-40.5 -63q-7 -10 -13.5 -19.5t-12.5 -19.5q-17 -26 -33 -50.5t-28 -45t-19 -37t-7 -26.5q0 -11 11 -11q35 0 78.5 32t89.5 83q23 26 49 56.5t49 60.5l13 -15
l-26 -33q-17 -22 -35 -43t-35 -40q-50 -53 -97 -87.5t-90 -34.5q-55 0 -76.5 18t-21.5 49q0 20 10 44t26 51t37 56t44 58l45 57l38 47.5t31.5 42t21.5 34.5t8 24q0 8 -11 8q-19 0 -42.5 -10.5t-47 -26t-45 -32.5t-36.5 -30q-24 -22 -49 -47t-47.5 -49.5t-42.5 -47t-34 -38.5
l-6 -7v1q-20 -32 -39.5 -62t-37 -56.5t-32 -48t-24.5 -35.5h-126l10 16l50 69l127 174q21 30 42 61t40 59t33.5 50.5t21.5 34.5q2 4 4.5 10t2.5 10q0 5 -7 5q-15 0 -45.5 -33.5t-70.5 -85.5l-102 -132q-11 -15 -31 -38t-44 -45.5t-49 -38.5t-46 -16zM1783 428v35t-2 34
q-55 -78 -101.5 -158t-80.5 -158t-53.5 -152.5t-19.5 -140.5q0 -68 37 -68q25 0 47.5 17.5t41 43t32 52.5t21.5 47q27 67 45.5 150t26.5 176q3 32 4 62.5t2 59.5zM2836 61q22 19 48 43.5t51 52.5q0 30 10.5 60.5t28.5 58.5q18 26 43 47t52 25q12 25 20.5 49.5t8.5 48.5
q0 13 -6 25.5t-21 12.5q-21 0 -48 -20.5t-56.5 -51.5t-58.5 -68.5t-53 -70.5q-28 -38 -52 -75t-41.5 -70t-27.5 -59.5t-10 -43.5q0 -7 5 -9.5t11 -2.5q18 0 43.5 13.5t52.5 34.5zM1775 694q5 -26 9.5 -51.5t8.5 -52.5q62 70 127.5 136t131 123.5t129.5 105t122 82.5
q-143 -61 -275 -149t-253 -194zM2210 559q8 10 17 21t16.5 21.5t13 19.5t6.5 14q-9 -1 -19 -10t-19 -22t-16 -28.5t-10 -30.5q3 3 5.5 7t5.5 8z" />
    <glyph glyph-name="one" unicode="1" 
d="M2767 1168q108 0 209.5 -30t190.5 -96l-2 -16q-90 66 -192 94.5t-206 28.5q-49 0 -104.5 -8t-112 -22.5t-111.5 -35.5t-104 -47q-64 -38 -133.5 -92.5t-139.5 -121.5t-137.5 -143.5t-125.5 -157.5q2 -22 2 -46v-47q0 -30 -1.5 -60.5t-3.5 -62.5q-8 -96 -27 -181t-46 -151
q-14 -34 -34 -70.5t-47.5 -66.5t-62 -49t-77.5 -19q-48 0 -68.5 28t-20.5 74q0 72 29 158.5t79 178t115.5 184.5t139.5 180q-4 29 -8 56t-10 53q-72 -64 -138.5 -132t-127.5 -138q-66 -76 -132 -150t-136 -140t-146 -122t-162 -97t-184.5 -64t-213.5 -23q-104 0 -199 24.5
t-167 78.5t-114.5 139.5t-42.5 208.5q0 103 34 201t94 181t143.5 148t182.5 102q63 23 120 33t119 10h21t22 -1q4 8 9.5 20t13.5 26q32 55 77.5 97t101 70t119 42.5t131.5 14.5q131 0 244.5 -52t199.5 -154q44 -52 78 -116t57 -146q132 100 274.5 184.5t281.5 142.5
q103 42 216.5 70t232.5 30zM1230 277q115 112 244.5 228t271.5 223q-23 81 -57 146.5t-77 116.5q-78 94 -186 144.5t-233 50.5q-59 0 -116 -14t-108.5 -42.5t-95.5 -70.5t-75 -98h1q-2 -6 -5 -13t-6 -13q47 -6 89.5 -16t84 -24.5t82.5 -33t85 -41.5l-4 -9q-46 19 -88.5 34.5
t-84.5 26t-86 17.5t-92 10q-7 -23 -11 -46.5t-4 -50.5q0 -48 18 -97.5t50 -87.5q24 -26 56 -46.5t67.5 -34.5t73.5 -21.5t75 -7.5q39 0 70 3.5t59.5 11t56.5 18.5t60 25l5 -9q-32 -21 -61 -37t-59.5 -27t-65.5 -17t-80 -6q-83 0 -159.5 24.5t-138.5 86.5q-38 45 -60.5 100
t-22.5 119q0 26 3.5 50.5t10.5 50.5q-66 -2 -124.5 -13.5t-124.5 -38.5q-86 -35 -162.5 -94.5t-134.5 -137.5t-91.5 -170.5t-33.5 -192.5q0 -102 34.5 -179t94 -129.5t138 -79t167.5 -26.5q77 0 148 18.5t136.5 50t127 74t119 91t112 101t107.5 103.5zM2979 95
q-16 0 -26.5 11.5t-14.5 25.5q-22 -24 -45 -45.5t-46 -40.5q-30 -24 -58.5 -38.5t-48.5 -14.5q-35 0 -50 24t-15 54q0 51 20 109q-15 -19 -30.5 -36t-29.5 -33q-48 -51 -94 -83.5t-88 -32.5q-49 0 -75.5 24.5t-26.5 68.5q0 24 7.5 48.5t18.5 48.5t25 47t27 44t20.5 33.5
t14.5 23.5t15 23t22 32q-23 -28 -46 -55.5t-46 -56.5l-35 -43q-12 -15 -28 -33.5t-37 -42.5q-38 -41 -73.5 -72t-77 -52t-93.5 -31.5t-124 -10.5q-20 0 -41 5.5t-38.5 17t-28.5 29.5t-11 44q0 20 8 39.5t22 35t33.5 25t42.5 9.5q37 0 63 -23t26 -71h-18q0 38 -21.5 57
t-49.5 19q-17 0 -33 -7.5t-28 -20t-19 -29t-7 -34.5q0 -31 26 -54t74 -23q41 0 72.5 22t55.5 59t41 85t27.5 100t15.5 104.5t6 98.5q-16 -17 -31.5 -35t-31.5 -35l-165 -186l-13 15q48 57 86 99.5t70 77.5l87 97q2 25 12 50.5t24.5 46t33 33.5t36.5 13q14 0 14 -16
q0 -9 -5.5 -19.5t-13.5 -22.5t-18 -25t-20 -25q-8 -10 -14.5 -19t-12.5 -17q1 -24 4.5 -55t8.5 -62q6 -38 11 -79.5t5 -79.5q0 -53 -24.5 -104.5t-65.5 -86.5q43 22 86 57.5t72 68.5l67 78q30 36 62 75t61.5 74t54.5 63t40 43l4 6h-99v28h119l119 166h124l-82 -107l-44 -59
h96v-28h-119q-48 -63 -91 -124t-94 -133q-15 -21 -32.5 -46.5t-32.5 -51.5t-25.5 -51t-10.5 -45q0 -18 10.5 -30t36.5 -12q34 0 76 30.5t86 77.5q24 27 52 60t52 64q9 19 20 37t24 36q28 39 62 72.5t71.5 58.5t76.5 39.5t77 14.5q28 0 44.5 -13.5t16.5 -45.5q0 -27 -11 -56
t-23 -55q-15 -29 -31 -55t-32 -49q-30 -41 -65 -83q1 -13 7 -24t18 -11q17 0 39.5 15.5t44.5 37t41.5 44.5t31.5 37q5 6 11.5 14t17 22.5t28 36.5t44.5 57q20 26 38.5 49t35.5 40t32.5 27t29.5 10q24 0 37.5 -14.5t13.5 -39.5q0 -22 -19 -65.5t-48 -96.5q24 26 54 56.5
t60 56.5q16 15 38.5 32.5t47.5 33.5t51 26.5t50 10.5q23 0 39.5 -14t16.5 -40q0 -20 -9 -46t-24 -55t-34.5 -61t-40.5 -63q-7 -10 -13.5 -19.5t-12.5 -19.5q-17 -26 -33 -50.5t-28 -45t-19 -37t-7 -26.5q0 -11 11 -11q35 0 78.5 32t89.5 83q23 26 49 56.5t49 60.5l13 -15
l-26 -33q-17 -22 -35 -43t-35 -40q-50 -53 -97 -87.5t-90 -34.5q-55 0 -76.5 18t-21.5 49q0 20 10 44t26 51t37 56t44 58l45 57l38 47.5t31.5 42t21.5 34.5t8 24q0 8 -11 8q-19 0 -42.5 -10.5t-47 -26t-45 -32.5t-36.5 -30q-24 -22 -49 -47t-47.5 -49.5t-42.5 -47t-34 -38.5
l-6 -7v1q-20 -32 -39.5 -62t-37 -56.5t-32 -48t-24.5 -35.5h-126l10 16l50 69l127 174q21 30 42 61t40 59t33.5 50.5t21.5 34.5q2 4 4.5 10t2.5 10q0 5 -7 5q-15 0 -45.5 -33.5t-70.5 -85.5l-102 -132q-11 -15 -31 -38t-44 -45.5t-49 -38.5t-46 -16zM1783 428v35t-2 34
q-55 -78 -101.5 -158t-80.5 -158t-53.5 -152.5t-19.5 -140.5q0 -68 37 -68q25 0 47.5 17.5t41 43t32 52.5t21.5 47q27 67 45.5 150t26.5 176q3 32 4 62.5t2 59.5zM2836 61q22 19 48 43.5t51 52.5q0 30 10.5 60.5t28.5 58.5q18 26 43 47t52 25q12 25 20.5 49.5t8.5 48.5
q0 13 -6 25.5t-21 12.5q-21 0 -48 -20.5t-56.5 -51.5t-58.5 -68.5t-53 -70.5q-28 -38 -52 -75t-41.5 -70t-27.5 -59.5t-10 -43.5q0 -7 5 -9.5t11 -2.5q18 0 43.5 13.5t52.5 34.5zM1775 694q5 -26 9.5 -51.5t8.5 -52.5q62 70 127.5 136t131 123.5t129.5 105t122 82.5
q-143 -61 -275 -149t-253 -194zM2210 559q8 10 17 21t16.5 21.5t13 19.5t6.5 14q-9 -1 -19 -10t-19 -22t-16 -28.5t-10 -30.5q3 3 5.5 7t5.5 8z" />
    <glyph glyph-name="two" unicode="2" 
d="M2767 1168q108 0 209.5 -30t190.5 -96l-2 -16q-90 66 -192 94.5t-206 28.5q-49 0 -104.5 -8t-112 -22.5t-111.5 -35.5t-104 -47q-64 -38 -133.5 -92.5t-139.5 -121.5t-137.5 -143.5t-125.5 -157.5q2 -22 2 -46v-47q0 -30 -1.5 -60.5t-3.5 -62.5q-8 -96 -27 -181t-46 -151
q-14 -34 -34 -70.5t-47.5 -66.5t-62 -49t-77.5 -19q-48 0 -68.5 28t-20.5 74q0 72 29 158.5t79 178t115.5 184.5t139.5 180q-4 29 -8 56t-10 53q-72 -64 -138.5 -132t-127.5 -138q-66 -76 -132 -150t-136 -140t-146 -122t-162 -97t-184.5 -64t-213.5 -23q-104 0 -199 24.5
t-167 78.5t-114.5 139.5t-42.5 208.5q0 103 34 201t94 181t143.5 148t182.5 102q63 23 120 33t119 10h21t22 -1q4 8 9.5 20t13.5 26q32 55 77.5 97t101 70t119 42.5t131.5 14.5q131 0 244.5 -52t199.5 -154q44 -52 78 -116t57 -146q132 100 274.5 184.5t281.5 142.5
q103 42 216.5 70t232.5 30zM1230 277q115 112 244.5 228t271.5 223q-23 81 -57 146.5t-77 116.5q-78 94 -186 144.5t-233 50.5q-59 0 -116 -14t-108.5 -42.5t-95.5 -70.5t-75 -98h1q-2 -6 -5 -13t-6 -13q47 -6 89.5 -16t84 -24.5t82.5 -33t85 -41.5l-4 -9q-46 19 -88.5 34.5
t-84.5 26t-86 17.5t-92 10q-7 -23 -11 -46.5t-4 -50.5q0 -48 18 -97.5t50 -87.5q24 -26 56 -46.5t67.5 -34.5t73.5 -21.5t75 -7.5q39 0 70 3.5t59.5 11t56.5 18.5t60 25l5 -9q-32 -21 -61 -37t-59.5 -27t-65.5 -17t-80 -6q-83 0 -159.5 24.5t-138.5 86.5q-38 45 -60.5 100
t-22.5 119q0 26 3.5 50.5t10.5 50.5q-66 -2 -124.5 -13.5t-124.5 -38.5q-86 -35 -162.5 -94.5t-134.5 -137.5t-91.5 -170.5t-33.5 -192.5q0 -102 34.5 -179t94 -129.5t138 -79t167.5 -26.5q77 0 148 18.5t136.5 50t127 74t119 91t112 101t107.5 103.5zM2979 95
q-16 0 -26.5 11.5t-14.5 25.5q-22 -24 -45 -45.5t-46 -40.5q-30 -24 -58.5 -38.5t-48.5 -14.5q-35 0 -50 24t-15 54q0 51 20 109q-15 -19 -30.5 -36t-29.5 -33q-48 -51 -94 -83.5t-88 -32.5q-49 0 -75.5 24.5t-26.5 68.5q0 24 7.5 48.5t18.5 48.5t25 47t27 44t20.5 33.5
t14.5 23.5t15 23t22 32q-23 -28 -46 -55.5t-46 -56.5l-35 -43q-12 -15 -28 -33.5t-37 -42.5q-38 -41 -73.5 -72t-77 -52t-93.5 -31.5t-124 -10.5q-20 0 -41 5.5t-38.5 17t-28.5 29.5t-11 44q0 20 8 39.5t22 35t33.5 25t42.5 9.5q37 0 63 -23t26 -71h-18q0 38 -21.5 57
t-49.5 19q-17 0 -33 -7.5t-28 -20t-19 -29t-7 -34.5q0 -31 26 -54t74 -23q41 0 72.5 22t55.5 59t41 85t27.5 100t15.5 104.5t6 98.5q-16 -17 -31.5 -35t-31.5 -35l-165 -186l-13 15q48 57 86 99.5t70 77.5l87 97q2 25 12 50.5t24.5 46t33 33.5t36.5 13q14 0 14 -16
q0 -9 -5.5 -19.5t-13.5 -22.5t-18 -25t-20 -25q-8 -10 -14.5 -19t-12.5 -17q1 -24 4.5 -55t8.5 -62q6 -38 11 -79.5t5 -79.5q0 -53 -24.5 -104.5t-65.5 -86.5q43 22 86 57.5t72 68.5l67 78q30 36 62 75t61.5 74t54.5 63t40 43l4 6h-99v28h119l119 166h124l-82 -107l-44 -59
h96v-28h-119q-48 -63 -91 -124t-94 -133q-15 -21 -32.5 -46.5t-32.5 -51.5t-25.5 -51t-10.5 -45q0 -18 10.5 -30t36.5 -12q34 0 76 30.5t86 77.5q24 27 52 60t52 64q9 19 20 37t24 36q28 39 62 72.5t71.5 58.5t76.5 39.5t77 14.5q28 0 44.5 -13.5t16.5 -45.5q0 -27 -11 -56
t-23 -55q-15 -29 -31 -55t-32 -49q-30 -41 -65 -83q1 -13 7 -24t18 -11q17 0 39.5 15.5t44.5 37t41.5 44.5t31.5 37q5 6 11.5 14t17 22.5t28 36.5t44.5 57q20 26 38.5 49t35.5 40t32.5 27t29.5 10q24 0 37.5 -14.5t13.5 -39.5q0 -22 -19 -65.5t-48 -96.5q24 26 54 56.5
t60 56.5q16 15 38.5 32.5t47.5 33.5t51 26.5t50 10.5q23 0 39.5 -14t16.5 -40q0 -20 -9 -46t-24 -55t-34.5 -61t-40.5 -63q-7 -10 -13.5 -19.5t-12.5 -19.5q-17 -26 -33 -50.5t-28 -45t-19 -37t-7 -26.5q0 -11 11 -11q35 0 78.5 32t89.5 83q23 26 49 56.5t49 60.5l13 -15
l-26 -33q-17 -22 -35 -43t-35 -40q-50 -53 -97 -87.5t-90 -34.5q-55 0 -76.5 18t-21.5 49q0 20 10 44t26 51t37 56t44 58l45 57l38 47.5t31.5 42t21.5 34.5t8 24q0 8 -11 8q-19 0 -42.5 -10.5t-47 -26t-45 -32.5t-36.5 -30q-24 -22 -49 -47t-47.5 -49.5t-42.5 -47t-34 -38.5
l-6 -7v1q-20 -32 -39.5 -62t-37 -56.5t-32 -48t-24.5 -35.5h-126l10 16l50 69l127 174q21 30 42 61t40 59t33.5 50.5t21.5 34.5q2 4 4.5 10t2.5 10q0 5 -7 5q-15 0 -45.5 -33.5t-70.5 -85.5l-102 -132q-11 -15 -31 -38t-44 -45.5t-49 -38.5t-46 -16zM1783 428v35t-2 34
q-55 -78 -101.5 -158t-80.5 -158t-53.5 -152.5t-19.5 -140.5q0 -68 37 -68q25 0 47.5 17.5t41 43t32 52.5t21.5 47q27 67 45.5 150t26.5 176q3 32 4 62.5t2 59.5zM2836 61q22 19 48 43.5t51 52.5q0 30 10.5 60.5t28.5 58.5q18 26 43 47t52 25q12 25 20.5 49.5t8.5 48.5
q0 13 -6 25.5t-21 12.5q-21 0 -48 -20.5t-56.5 -51.5t-58.5 -68.5t-53 -70.5q-28 -38 -52 -75t-41.5 -70t-27.5 -59.5t-10 -43.5q0 -7 5 -9.5t11 -2.5q18 0 43.5 13.5t52.5 34.5zM1775 694q5 -26 9.5 -51.5t8.5 -52.5q62 70 127.5 136t131 123.5t129.5 105t122 82.5
q-143 -61 -275 -149t-253 -194zM2210 559q8 10 17 21t16.5 21.5t13 19.5t6.5 14q-9 -1 -19 -10t-19 -22t-16 -28.5t-10 -30.5q3 3 5.5 7t5.5 8z" />
    <glyph glyph-name="three" unicode="3" 
d="M2767 1168q108 0 209.5 -30t190.5 -96l-2 -16q-90 66 -192 94.5t-206 28.5q-49 0 -104.5 -8t-112 -22.5t-111.5 -35.5t-104 -47q-64 -38 -133.5 -92.5t-139.5 -121.5t-137.5 -143.5t-125.5 -157.5q2 -22 2 -46v-47q0 -30 -1.5 -60.5t-3.5 -62.5q-8 -96 -27 -181t-46 -151
q-14 -34 -34 -70.5t-47.5 -66.5t-62 -49t-77.5 -19q-48 0 -68.5 28t-20.5 74q0 72 29 158.5t79 178t115.5 184.5t139.5 180q-4 29 -8 56t-10 53q-72 -64 -138.5 -132t-127.5 -138q-66 -76 -132 -150t-136 -140t-146 -122t-162 -97t-184.5 -64t-213.5 -23q-104 0 -199 24.5
t-167 78.5t-114.5 139.5t-42.5 208.5q0 103 34 201t94 181t143.5 148t182.5 102q63 23 120 33t119 10h21t22 -1q4 8 9.5 20t13.5 26q32 55 77.5 97t101 70t119 42.5t131.5 14.5q131 0 244.5 -52t199.5 -154q44 -52 78 -116t57 -146q132 100 274.5 184.5t281.5 142.5
q103 42 216.5 70t232.5 30zM1230 277q115 112 244.5 228t271.5 223q-23 81 -57 146.5t-77 116.5q-78 94 -186 144.5t-233 50.5q-59 0 -116 -14t-108.5 -42.5t-95.5 -70.5t-75 -98h1q-2 -6 -5 -13t-6 -13q47 -6 89.5 -16t84 -24.5t82.5 -33t85 -41.5l-4 -9q-46 19 -88.5 34.5
t-84.5 26t-86 17.5t-92 10q-7 -23 -11 -46.5t-4 -50.5q0 -48 18 -97.5t50 -87.5q24 -26 56 -46.5t67.5 -34.5t73.5 -21.5t75 -7.5q39 0 70 3.5t59.5 11t56.5 18.5t60 25l5 -9q-32 -21 -61 -37t-59.5 -27t-65.5 -17t-80 -6q-83 0 -159.5 24.5t-138.5 86.5q-38 45 -60.5 100
t-22.5 119q0 26 3.5 50.5t10.5 50.5q-66 -2 -124.5 -13.5t-124.5 -38.5q-86 -35 -162.5 -94.5t-134.5 -137.5t-91.5 -170.5t-33.5 -192.5q0 -102 34.5 -179t94 -129.5t138 -79t167.5 -26.5q77 0 148 18.5t136.5 50t127 74t119 91t112 101t107.5 103.5zM2979 95
q-16 0 -26.5 11.5t-14.5 25.5q-22 -24 -45 -45.5t-46 -40.5q-30 -24 -58.5 -38.5t-48.5 -14.5q-35 0 -50 24t-15 54q0 51 20 109q-15 -19 -30.5 -36t-29.5 -33q-48 -51 -94 -83.5t-88 -32.5q-49 0 -75.5 24.5t-26.5 68.5q0 24 7.5 48.5t18.5 48.5t25 47t27 44t20.5 33.5
t14.5 23.5t15 23t22 32q-23 -28 -46 -55.5t-46 -56.5l-35 -43q-12 -15 -28 -33.5t-37 -42.5q-38 -41 -73.5 -72t-77 -52t-93.5 -31.5t-124 -10.5q-20 0 -41 5.5t-38.5 17t-28.5 29.5t-11 44q0 20 8 39.5t22 35t33.5 25t42.5 9.5q37 0 63 -23t26 -71h-18q0 38 -21.5 57
t-49.5 19q-17 0 -33 -7.5t-28 -20t-19 -29t-7 -34.5q0 -31 26 -54t74 -23q41 0 72.5 22t55.5 59t41 85t27.5 100t15.5 104.5t6 98.5q-16 -17 -31.5 -35t-31.5 -35l-165 -186l-13 15q48 57 86 99.5t70 77.5l87 97q2 25 12 50.5t24.5 46t33 33.5t36.5 13q14 0 14 -16
q0 -9 -5.5 -19.5t-13.5 -22.5t-18 -25t-20 -25q-8 -10 -14.5 -19t-12.5 -17q1 -24 4.5 -55t8.5 -62q6 -38 11 -79.5t5 -79.5q0 -53 -24.5 -104.5t-65.5 -86.5q43 22 86 57.5t72 68.5l67 78q30 36 62 75t61.5 74t54.5 63t40 43l4 6h-99v28h119l119 166h124l-82 -107l-44 -59
h96v-28h-119q-48 -63 -91 -124t-94 -133q-15 -21 -32.5 -46.5t-32.5 -51.5t-25.5 -51t-10.5 -45q0 -18 10.5 -30t36.5 -12q34 0 76 30.5t86 77.5q24 27 52 60t52 64q9 19 20 37t24 36q28 39 62 72.5t71.5 58.5t76.5 39.5t77 14.5q28 0 44.5 -13.5t16.5 -45.5q0 -27 -11 -56
t-23 -55q-15 -29 -31 -55t-32 -49q-30 -41 -65 -83q1 -13 7 -24t18 -11q17 0 39.5 15.5t44.5 37t41.5 44.5t31.5 37q5 6 11.5 14t17 22.5t28 36.5t44.5 57q20 26 38.5 49t35.5 40t32.5 27t29.5 10q24 0 37.5 -14.5t13.5 -39.5q0 -22 -19 -65.5t-48 -96.5q24 26 54 56.5
t60 56.5q16 15 38.5 32.5t47.5 33.5t51 26.5t50 10.5q23 0 39.5 -14t16.5 -40q0 -20 -9 -46t-24 -55t-34.5 -61t-40.5 -63q-7 -10 -13.5 -19.5t-12.5 -19.5q-17 -26 -33 -50.5t-28 -45t-19 -37t-7 -26.5q0 -11 11 -11q35 0 78.5 32t89.5 83q23 26 49 56.5t49 60.5l13 -15
l-26 -33q-17 -22 -35 -43t-35 -40q-50 -53 -97 -87.5t-90 -34.5q-55 0 -76.5 18t-21.5 49q0 20 10 44t26 51t37 56t44 58l45 57l38 47.5t31.5 42t21.5 34.5t8 24q0 8 -11 8q-19 0 -42.5 -10.5t-47 -26t-45 -32.5t-36.5 -30q-24 -22 -49 -47t-47.5 -49.5t-42.5 -47t-34 -38.5
l-6 -7v1q-20 -32 -39.5 -62t-37 -56.5t-32 -48t-24.5 -35.5h-126l10 16l50 69l127 174q21 30 42 61t40 59t33.5 50.5t21.5 34.5q2 4 4.5 10t2.5 10q0 5 -7 5q-15 0 -45.5 -33.5t-70.5 -85.5l-102 -132q-11 -15 -31 -38t-44 -45.5t-49 -38.5t-46 -16zM1783 428v35t-2 34
q-55 -78 -101.5 -158t-80.5 -158t-53.5 -152.5t-19.5 -140.5q0 -68 37 -68q25 0 47.5 17.5t41 43t32 52.5t21.5 47q27 67 45.5 150t26.5 176q3 32 4 62.5t2 59.5zM2836 61q22 19 48 43.5t51 52.5q0 30 10.5 60.5t28.5 58.5q18 26 43 47t52 25q12 25 20.5 49.5t8.5 48.5
q0 13 -6 25.5t-21 12.5q-21 0 -48 -20.5t-56.5 -51.5t-58.5 -68.5t-53 -70.5q-28 -38 -52 -75t-41.5 -70t-27.5 -59.5t-10 -43.5q0 -7 5 -9.5t11 -2.5q18 0 43.5 13.5t52.5 34.5zM1775 694q5 -26 9.5 -51.5t8.5 -52.5q62 70 127.5 136t131 123.5t129.5 105t122 82.5
q-143 -61 -275 -149t-253 -194zM2210 559q8 10 17 21t16.5 21.5t13 19.5t6.5 14q-9 -1 -19 -10t-19 -22t-16 -28.5t-10 -30.5q3 3 5.5 7t5.5 8z" />
    <glyph glyph-name="four" unicode="4" 
d="M2767 1168q108 0 209.5 -30t190.5 -96l-2 -16q-90 66 -192 94.5t-206 28.5q-49 0 -104.5 -8t-112 -22.5t-111.5 -35.5t-104 -47q-64 -38 -133.5 -92.5t-139.5 -121.5t-137.5 -143.5t-125.5 -157.5q2 -22 2 -46v-47q0 -30 -1.5 -60.5t-3.5 -62.5q-8 -96 -27 -181t-46 -151
q-14 -34 -34 -70.5t-47.5 -66.5t-62 -49t-77.5 -19q-48 0 -68.5 28t-20.5 74q0 72 29 158.5t79 178t115.5 184.5t139.5 180q-4 29 -8 56t-10 53q-72 -64 -138.5 -132t-127.5 -138q-66 -76 -132 -150t-136 -140t-146 -122t-162 -97t-184.5 -64t-213.5 -23q-104 0 -199 24.5
t-167 78.5t-114.5 139.5t-42.5 208.5q0 103 34 201t94 181t143.5 148t182.5 102q63 23 120 33t119 10h21t22 -1q4 8 9.5 20t13.5 26q32 55 77.5 97t101 70t119 42.5t131.5 14.5q131 0 244.5 -52t199.5 -154q44 -52 78 -116t57 -146q132 100 274.5 184.5t281.5 142.5
q103 42 216.5 70t232.5 30zM1230 277q115 112 244.5 228t271.5 223q-23 81 -57 146.5t-77 116.5q-78 94 -186 144.5t-233 50.5q-59 0 -116 -14t-108.5 -42.5t-95.5 -70.5t-75 -98h1q-2 -6 -5 -13t-6 -13q47 -6 89.5 -16t84 -24.5t82.5 -33t85 -41.5l-4 -9q-46 19 -88.5 34.5
t-84.5 26t-86 17.5t-92 10q-7 -23 -11 -46.5t-4 -50.5q0 -48 18 -97.5t50 -87.5q24 -26 56 -46.5t67.5 -34.5t73.5 -21.5t75 -7.5q39 0 70 3.5t59.5 11t56.5 18.5t60 25l5 -9q-32 -21 -61 -37t-59.5 -27t-65.5 -17t-80 -6q-83 0 -159.5 24.5t-138.5 86.5q-38 45 -60.5 100
t-22.5 119q0 26 3.5 50.5t10.5 50.5q-66 -2 -124.5 -13.5t-124.5 -38.5q-86 -35 -162.5 -94.5t-134.5 -137.5t-91.5 -170.5t-33.5 -192.5q0 -102 34.5 -179t94 -129.5t138 -79t167.5 -26.5q77 0 148 18.5t136.5 50t127 74t119 91t112 101t107.5 103.5zM2979 95
q-16 0 -26.5 11.5t-14.5 25.5q-22 -24 -45 -45.5t-46 -40.5q-30 -24 -58.5 -38.5t-48.5 -14.5q-35 0 -50 24t-15 54q0 51 20 109q-15 -19 -30.5 -36t-29.5 -33q-48 -51 -94 -83.5t-88 -32.5q-49 0 -75.5 24.5t-26.5 68.5q0 24 7.5 48.5t18.5 48.5t25 47t27 44t20.5 33.5
t14.5 23.5t15 23t22 32q-23 -28 -46 -55.5t-46 -56.5l-35 -43q-12 -15 -28 -33.5t-37 -42.5q-38 -41 -73.5 -72t-77 -52t-93.5 -31.5t-124 -10.5q-20 0 -41 5.5t-38.5 17t-28.5 29.5t-11 44q0 20 8 39.5t22 35t33.5 25t42.5 9.5q37 0 63 -23t26 -71h-18q0 38 -21.5 57
t-49.5 19q-17 0 -33 -7.5t-28 -20t-19 -29t-7 -34.5q0 -31 26 -54t74 -23q41 0 72.5 22t55.5 59t41 85t27.5 100t15.5 104.5t6 98.5q-16 -17 -31.5 -35t-31.5 -35l-165 -186l-13 15q48 57 86 99.5t70 77.5l87 97q2 25 12 50.5t24.5 46t33 33.5t36.5 13q14 0 14 -16
q0 -9 -5.5 -19.5t-13.5 -22.5t-18 -25t-20 -25q-8 -10 -14.5 -19t-12.5 -17q1 -24 4.5 -55t8.5 -62q6 -38 11 -79.5t5 -79.5q0 -53 -24.5 -104.5t-65.5 -86.5q43 22 86 57.5t72 68.5l67 78q30 36 62 75t61.5 74t54.5 63t40 43l4 6h-99v28h119l119 166h124l-82 -107l-44 -59
h96v-28h-119q-48 -63 -91 -124t-94 -133q-15 -21 -32.5 -46.5t-32.5 -51.5t-25.5 -51t-10.5 -45q0 -18 10.5 -30t36.5 -12q34 0 76 30.5t86 77.5q24 27 52 60t52 64q9 19 20 37t24 36q28 39 62 72.5t71.5 58.5t76.5 39.5t77 14.5q28 0 44.5 -13.5t16.5 -45.5q0 -27 -11 -56
t-23 -55q-15 -29 -31 -55t-32 -49q-30 -41 -65 -83q1 -13 7 -24t18 -11q17 0 39.5 15.5t44.5 37t41.5 44.5t31.5 37q5 6 11.5 14t17 22.5t28 36.5t44.5 57q20 26 38.5 49t35.5 40t32.5 27t29.5 10q24 0 37.5 -14.5t13.5 -39.5q0 -22 -19 -65.5t-48 -96.5q24 26 54 56.5
t60 56.5q16 15 38.5 32.5t47.5 33.5t51 26.5t50 10.5q23 0 39.5 -14t16.5 -40q0 -20 -9 -46t-24 -55t-34.5 -61t-40.5 -63q-7 -10 -13.5 -19.5t-12.5 -19.5q-17 -26 -33 -50.5t-28 -45t-19 -37t-7 -26.5q0 -11 11 -11q35 0 78.5 32t89.5 83q23 26 49 56.5t49 60.5l13 -15
l-26 -33q-17 -22 -35 -43t-35 -40q-50 -53 -97 -87.5t-90 -34.5q-55 0 -76.5 18t-21.5 49q0 20 10 44t26 51t37 56t44 58l45 57l38 47.5t31.5 42t21.5 34.5t8 24q0 8 -11 8q-19 0 -42.5 -10.5t-47 -26t-45 -32.5t-36.5 -30q-24 -22 -49 -47t-47.5 -49.5t-42.5 -47t-34 -38.5
l-6 -7v1q-20 -32 -39.5 -62t-37 -56.5t-32 -48t-24.5 -35.5h-126l10 16l50 69l127 174q21 30 42 61t40 59t33.5 50.5t21.5 34.5q2 4 4.5 10t2.5 10q0 5 -7 5q-15 0 -45.5 -33.5t-70.5 -85.5l-102 -132q-11 -15 -31 -38t-44 -45.5t-49 -38.5t-46 -16zM1783 428v35t-2 34
q-55 -78 -101.5 -158t-80.5 -158t-53.5 -152.5t-19.5 -140.5q0 -68 37 -68q25 0 47.5 17.5t41 43t32 52.5t21.5 47q27 67 45.5 150t26.5 176q3 32 4 62.5t2 59.5zM2836 61q22 19 48 43.5t51 52.5q0 30 10.5 60.5t28.5 58.5q18 26 43 47t52 25q12 25 20.5 49.5t8.5 48.5
q0 13 -6 25.5t-21 12.5q-21 0 -48 -20.5t-56.5 -51.5t-58.5 -68.5t-53 -70.5q-28 -38 -52 -75t-41.5 -70t-27.5 -59.5t-10 -43.5q0 -7 5 -9.5t11 -2.5q18 0 43.5 13.5t52.5 34.5zM1775 694q5 -26 9.5 -51.5t8.5 -52.5q62 70 127.5 136t131 123.5t129.5 105t122 82.5
q-143 -61 -275 -149t-253 -194zM2210 559q8 10 17 21t16.5 21.5t13 19.5t6.5 14q-9 -1 -19 -10t-19 -22t-16 -28.5t-10 -30.5q3 3 5.5 7t5.5 8z" />
    <glyph glyph-name="five" unicode="5" 
d="M2767 1168q108 0 209.5 -30t190.5 -96l-2 -16q-90 66 -192 94.5t-206 28.5q-49 0 -104.5 -8t-112 -22.5t-111.5 -35.5t-104 -47q-64 -38 -133.5 -92.5t-139.5 -121.5t-137.5 -143.5t-125.5 -157.5q2 -22 2 -46v-47q0 -30 -1.5 -60.5t-3.5 -62.5q-8 -96 -27 -181t-46 -151
q-14 -34 -34 -70.5t-47.5 -66.5t-62 -49t-77.5 -19q-48 0 -68.5 28t-20.5 74q0 72 29 158.5t79 178t115.5 184.5t139.5 180q-4 29 -8 56t-10 53q-72 -64 -138.5 -132t-127.5 -138q-66 -76 -132 -150t-136 -140t-146 -122t-162 -97t-184.5 -64t-213.5 -23q-104 0 -199 24.5
t-167 78.5t-114.5 139.5t-42.5 208.5q0 103 34 201t94 181t143.5 148t182.5 102q63 23 120 33t119 10h21t22 -1q4 8 9.5 20t13.5 26q32 55 77.5 97t101 70t119 42.5t131.5 14.5q131 0 244.5 -52t199.5 -154q44 -52 78 -116t57 -146q132 100 274.5 184.5t281.5 142.5
q103 42 216.5 70t232.5 30zM1230 277q115 112 244.5 228t271.5 223q-23 81 -57 146.5t-77 116.5q-78 94 -186 144.5t-233 50.5q-59 0 -116 -14t-108.5 -42.5t-95.5 -70.5t-75 -98h1q-2 -6 -5 -13t-6 -13q47 -6 89.5 -16t84 -24.5t82.5 -33t85 -41.5l-4 -9q-46 19 -88.5 34.5
t-84.5 26t-86 17.5t-92 10q-7 -23 -11 -46.5t-4 -50.5q0 -48 18 -97.5t50 -87.5q24 -26 56 -46.5t67.5 -34.5t73.5 -21.5t75 -7.5q39 0 70 3.5t59.5 11t56.5 18.5t60 25l5 -9q-32 -21 -61 -37t-59.5 -27t-65.5 -17t-80 -6q-83 0 -159.5 24.5t-138.5 86.5q-38 45 -60.5 100
t-22.5 119q0 26 3.5 50.5t10.5 50.5q-66 -2 -124.5 -13.5t-124.5 -38.5q-86 -35 -162.5 -94.5t-134.5 -137.5t-91.5 -170.5t-33.5 -192.5q0 -102 34.5 -179t94 -129.5t138 -79t167.5 -26.5q77 0 148 18.5t136.5 50t127 74t119 91t112 101t107.5 103.5zM2979 95
q-16 0 -26.5 11.5t-14.5 25.5q-22 -24 -45 -45.5t-46 -40.5q-30 -24 -58.5 -38.5t-48.5 -14.5q-35 0 -50 24t-15 54q0 51 20 109q-15 -19 -30.5 -36t-29.5 -33q-48 -51 -94 -83.5t-88 -32.5q-49 0 -75.5 24.5t-26.5 68.5q0 24 7.5 48.5t18.5 48.5t25 47t27 44t20.5 33.5
t14.5 23.5t15 23t22 32q-23 -28 -46 -55.5t-46 -56.5l-35 -43q-12 -15 -28 -33.5t-37 -42.5q-38 -41 -73.5 -72t-77 -52t-93.5 -31.5t-124 -10.5q-20 0 -41 5.5t-38.5 17t-28.5 29.5t-11 44q0 20 8 39.5t22 35t33.5 25t42.5 9.5q37 0 63 -23t26 -71h-18q0 38 -21.5 57
t-49.5 19q-17 0 -33 -7.5t-28 -20t-19 -29t-7 -34.5q0 -31 26 -54t74 -23q41 0 72.5 22t55.5 59t41 85t27.5 100t15.5 104.5t6 98.5q-16 -17 -31.5 -35t-31.5 -35l-165 -186l-13 15q48 57 86 99.5t70 77.5l87 97q2 25 12 50.5t24.5 46t33 33.5t36.5 13q14 0 14 -16
q0 -9 -5.5 -19.5t-13.5 -22.5t-18 -25t-20 -25q-8 -10 -14.5 -19t-12.5 -17q1 -24 4.5 -55t8.5 -62q6 -38 11 -79.5t5 -79.5q0 -53 -24.5 -104.5t-65.5 -86.5q43 22 86 57.5t72 68.5l67 78q30 36 62 75t61.5 74t54.5 63t40 43l4 6h-99v28h119l119 166h124l-82 -107l-44 -59
h96v-28h-119q-48 -63 -91 -124t-94 -133q-15 -21 -32.5 -46.5t-32.5 -51.5t-25.5 -51t-10.5 -45q0 -18 10.5 -30t36.5 -12q34 0 76 30.5t86 77.5q24 27 52 60t52 64q9 19 20 37t24 36q28 39 62 72.5t71.5 58.5t76.5 39.5t77 14.5q28 0 44.5 -13.5t16.5 -45.5q0 -27 -11 -56
t-23 -55q-15 -29 -31 -55t-32 -49q-30 -41 -65 -83q1 -13 7 -24t18 -11q17 0 39.5 15.5t44.5 37t41.5 44.5t31.5 37q5 6 11.5 14t17 22.5t28 36.5t44.5 57q20 26 38.5 49t35.5 40t32.5 27t29.5 10q24 0 37.5 -14.5t13.5 -39.5q0 -22 -19 -65.5t-48 -96.5q24 26 54 56.5
t60 56.5q16 15 38.5 32.5t47.5 33.5t51 26.5t50 10.5q23 0 39.5 -14t16.5 -40q0 -20 -9 -46t-24 -55t-34.5 -61t-40.5 -63q-7 -10 -13.5 -19.5t-12.5 -19.5q-17 -26 -33 -50.5t-28 -45t-19 -37t-7 -26.5q0 -11 11 -11q35 0 78.5 32t89.5 83q23 26 49 56.5t49 60.5l13 -15
l-26 -33q-17 -22 -35 -43t-35 -40q-50 -53 -97 -87.5t-90 -34.5q-55 0 -76.5 18t-21.5 49q0 20 10 44t26 51t37 56t44 58l45 57l38 47.5t31.5 42t21.5 34.5t8 24q0 8 -11 8q-19 0 -42.5 -10.5t-47 -26t-45 -32.5t-36.5 -30q-24 -22 -49 -47t-47.5 -49.5t-42.5 -47t-34 -38.5
l-6 -7v1q-20 -32 -39.5 -62t-37 -56.5t-32 -48t-24.5 -35.5h-126l10 16l50 69l127 174q21 30 42 61t40 59t33.5 50.5t21.5 34.5q2 4 4.5 10t2.5 10q0 5 -7 5q-15 0 -45.5 -33.5t-70.5 -85.5l-102 -132q-11 -15 -31 -38t-44 -45.5t-49 -38.5t-46 -16zM1783 428v35t-2 34
q-55 -78 -101.5 -158t-80.5 -158t-53.5 -152.5t-19.5 -140.5q0 -68 37 -68q25 0 47.5 17.5t41 43t32 52.5t21.5 47q27 67 45.5 150t26.5 176q3 32 4 62.5t2 59.5zM2836 61q22 19 48 43.5t51 52.5q0 30 10.5 60.5t28.5 58.5q18 26 43 47t52 25q12 25 20.5 49.5t8.5 48.5
q0 13 -6 25.5t-21 12.5q-21 0 -48 -20.5t-56.5 -51.5t-58.5 -68.5t-53 -70.5q-28 -38 -52 -75t-41.5 -70t-27.5 -59.5t-10 -43.5q0 -7 5 -9.5t11 -2.5q18 0 43.5 13.5t52.5 34.5zM1775 694q5 -26 9.5 -51.5t8.5 -52.5q62 70 127.5 136t131 123.5t129.5 105t122 82.5
q-143 -61 -275 -149t-253 -194zM2210 559q8 10 17 21t16.5 21.5t13 19.5t6.5 14q-9 -1 -19 -10t-19 -22t-16 -28.5t-10 -30.5q3 3 5.5 7t5.5 8z" />
    <glyph glyph-name="six" unicode="6" 
d="M2767 1168q108 0 209.5 -30t190.5 -96l-2 -16q-90 66 -192 94.5t-206 28.5q-49 0 -104.5 -8t-112 -22.5t-111.5 -35.5t-104 -47q-64 -38 -133.5 -92.5t-139.5 -121.5t-137.5 -143.5t-125.5 -157.5q2 -22 2 -46v-47q0 -30 -1.5 -60.5t-3.5 -62.5q-8 -96 -27 -181t-46 -151
q-14 -34 -34 -70.5t-47.5 -66.5t-62 -49t-77.5 -19q-48 0 -68.5 28t-20.5 74q0 72 29 158.5t79 178t115.5 184.5t139.5 180q-4 29 -8 56t-10 53q-72 -64 -138.5 -132t-127.5 -138q-66 -76 -132 -150t-136 -140t-146 -122t-162 -97t-184.5 -64t-213.5 -23q-104 0 -199 24.5
t-167 78.5t-114.5 139.5t-42.5 208.5q0 103 34 201t94 181t143.5 148t182.5 102q63 23 120 33t119 10h21t22 -1q4 8 9.5 20t13.5 26q32 55 77.5 97t101 70t119 42.5t131.5 14.5q131 0 244.5 -52t199.5 -154q44 -52 78 -116t57 -146q132 100 274.5 184.5t281.5 142.5
q103 42 216.5 70t232.5 30zM1230 277q115 112 244.5 228t271.5 223q-23 81 -57 146.5t-77 116.5q-78 94 -186 144.5t-233 50.5q-59 0 -116 -14t-108.5 -42.5t-95.5 -70.5t-75 -98h1q-2 -6 -5 -13t-6 -13q47 -6 89.5 -16t84 -24.5t82.5 -33t85 -41.5l-4 -9q-46 19 -88.5 34.5
t-84.5 26t-86 17.5t-92 10q-7 -23 -11 -46.5t-4 -50.5q0 -48 18 -97.5t50 -87.5q24 -26 56 -46.5t67.5 -34.5t73.5 -21.5t75 -7.5q39 0 70 3.5t59.5 11t56.5 18.5t60 25l5 -9q-32 -21 -61 -37t-59.5 -27t-65.5 -17t-80 -6q-83 0 -159.5 24.5t-138.5 86.5q-38 45 -60.5 100
t-22.5 119q0 26 3.5 50.5t10.5 50.5q-66 -2 -124.5 -13.5t-124.5 -38.5q-86 -35 -162.5 -94.5t-134.5 -137.5t-91.5 -170.5t-33.5 -192.5q0 -102 34.5 -179t94 -129.5t138 -79t167.5 -26.5q77 0 148 18.5t136.5 50t127 74t119 91t112 101t107.5 103.5zM2979 95
q-16 0 -26.5 11.5t-14.5 25.5q-22 -24 -45 -45.5t-46 -40.5q-30 -24 -58.5 -38.5t-48.5 -14.5q-35 0 -50 24t-15 54q0 51 20 109q-15 -19 -30.5 -36t-29.5 -33q-48 -51 -94 -83.5t-88 -32.5q-49 0 -75.5 24.5t-26.5 68.5q0 24 7.5 48.5t18.5 48.5t25 47t27 44t20.5 33.5
t14.5 23.5t15 23t22 32q-23 -28 -46 -55.5t-46 -56.5l-35 -43q-12 -15 -28 -33.5t-37 -42.5q-38 -41 -73.5 -72t-77 -52t-93.5 -31.5t-124 -10.5q-20 0 -41 5.5t-38.5 17t-28.5 29.5t-11 44q0 20 8 39.5t22 35t33.5 25t42.5 9.5q37 0 63 -23t26 -71h-18q0 38 -21.5 57
t-49.5 19q-17 0 -33 -7.5t-28 -20t-19 -29t-7 -34.5q0 -31 26 -54t74 -23q41 0 72.5 22t55.5 59t41 85t27.5 100t15.5 104.5t6 98.5q-16 -17 -31.5 -35t-31.5 -35l-165 -186l-13 15q48 57 86 99.5t70 77.5l87 97q2 25 12 50.5t24.5 46t33 33.5t36.5 13q14 0 14 -16
q0 -9 -5.5 -19.5t-13.5 -22.5t-18 -25t-20 -25q-8 -10 -14.5 -19t-12.5 -17q1 -24 4.5 -55t8.5 -62q6 -38 11 -79.5t5 -79.5q0 -53 -24.5 -104.5t-65.5 -86.5q43 22 86 57.5t72 68.5l67 78q30 36 62 75t61.5 74t54.5 63t40 43l4 6h-99v28h119l119 166h124l-82 -107l-44 -59
h96v-28h-119q-48 -63 -91 -124t-94 -133q-15 -21 -32.5 -46.5t-32.5 -51.5t-25.5 -51t-10.5 -45q0 -18 10.5 -30t36.5 -12q34 0 76 30.5t86 77.5q24 27 52 60t52 64q9 19 20 37t24 36q28 39 62 72.5t71.5 58.5t76.5 39.5t77 14.5q28 0 44.5 -13.5t16.5 -45.5q0 -27 -11 -56
t-23 -55q-15 -29 -31 -55t-32 -49q-30 -41 -65 -83q1 -13 7 -24t18 -11q17 0 39.5 15.5t44.5 37t41.5 44.5t31.5 37q5 6 11.5 14t17 22.5t28 36.5t44.5 57q20 26 38.5 49t35.5 40t32.5 27t29.5 10q24 0 37.5 -14.5t13.5 -39.5q0 -22 -19 -65.5t-48 -96.5q24 26 54 56.5
t60 56.5q16 15 38.5 32.5t47.5 33.5t51 26.5t50 10.5q23 0 39.5 -14t16.5 -40q0 -20 -9 -46t-24 -55t-34.5 -61t-40.5 -63q-7 -10 -13.5 -19.5t-12.5 -19.5q-17 -26 -33 -50.5t-28 -45t-19 -37t-7 -26.5q0 -11 11 -11q35 0 78.5 32t89.5 83q23 26 49 56.5t49 60.5l13 -15
l-26 -33q-17 -22 -35 -43t-35 -40q-50 -53 -97 -87.5t-90 -34.5q-55 0 -76.5 18t-21.5 49q0 20 10 44t26 51t37 56t44 58l45 57l38 47.5t31.5 42t21.5 34.5t8 24q0 8 -11 8q-19 0 -42.5 -10.5t-47 -26t-45 -32.5t-36.5 -30q-24 -22 -49 -47t-47.5 -49.5t-42.5 -47t-34 -38.5
l-6 -7v1q-20 -32 -39.5 -62t-37 -56.5t-32 -48t-24.5 -35.5h-126l10 16l50 69l127 174q21 30 42 61t40 59t33.5 50.5t21.5 34.5q2 4 4.5 10t2.5 10q0 5 -7 5q-15 0 -45.5 -33.5t-70.5 -85.5l-102 -132q-11 -15 -31 -38t-44 -45.5t-49 -38.5t-46 -16zM1783 428v35t-2 34
q-55 -78 -101.5 -158t-80.5 -158t-53.5 -152.5t-19.5 -140.5q0 -68 37 -68q25 0 47.5 17.5t41 43t32 52.5t21.5 47q27 67 45.5 150t26.5 176q3 32 4 62.5t2 59.5zM2836 61q22 19 48 43.5t51 52.5q0 30 10.5 60.5t28.5 58.5q18 26 43 47t52 25q12 25 20.5 49.5t8.5 48.5
q0 13 -6 25.5t-21 12.5q-21 0 -48 -20.5t-56.5 -51.5t-58.5 -68.5t-53 -70.5q-28 -38 -52 -75t-41.5 -70t-27.5 -59.5t-10 -43.5q0 -7 5 -9.5t11 -2.5q18 0 43.5 13.5t52.5 34.5zM1775 694q5 -26 9.5 -51.5t8.5 -52.5q62 70 127.5 136t131 123.5t129.5 105t122 82.5
q-143 -61 -275 -149t-253 -194zM2210 559q8 10 17 21t16.5 21.5t13 19.5t6.5 14q-9 -1 -19 -10t-19 -22t-16 -28.5t-10 -30.5q3 3 5.5 7t5.5 8z" />
    <glyph glyph-name="seven" unicode="7" 
d="M2767 1168q108 0 209.5 -30t190.5 -96l-2 -16q-90 66 -192 94.5t-206 28.5q-49 0 -104.5 -8t-112 -22.5t-111.5 -35.5t-104 -47q-64 -38 -133.5 -92.5t-139.5 -121.5t-137.5 -143.5t-125.5 -157.5q2 -22 2 -46v-47q0 -30 -1.5 -60.5t-3.5 -62.5q-8 -96 -27 -181t-46 -151
q-14 -34 -34 -70.5t-47.5 -66.5t-62 -49t-77.5 -19q-48 0 -68.5 28t-20.5 74q0 72 29 158.5t79 178t115.5 184.5t139.5 180q-4 29 -8 56t-10 53q-72 -64 -138.5 -132t-127.5 -138q-66 -76 -132 -150t-136 -140t-146 -122t-162 -97t-184.5 -64t-213.5 -23q-104 0 -199 24.5
t-167 78.5t-114.5 139.5t-42.5 208.5q0 103 34 201t94 181t143.5 148t182.5 102q63 23 120 33t119 10h21t22 -1q4 8 9.5 20t13.5 26q32 55 77.5 97t101 70t119 42.5t131.5 14.5q131 0 244.5 -52t199.5 -154q44 -52 78 -116t57 -146q132 100 274.5 184.5t281.5 142.5
q103 42 216.5 70t232.5 30zM1230 277q115 112 244.5 228t271.5 223q-23 81 -57 146.5t-77 116.5q-78 94 -186 144.5t-233 50.5q-59 0 -116 -14t-108.5 -42.5t-95.5 -70.5t-75 -98h1q-2 -6 -5 -13t-6 -13q47 -6 89.5 -16t84 -24.5t82.5 -33t85 -41.5l-4 -9q-46 19 -88.5 34.5
t-84.5 26t-86 17.5t-92 10q-7 -23 -11 -46.5t-4 -50.5q0 -48 18 -97.5t50 -87.5q24 -26 56 -46.5t67.5 -34.5t73.5 -21.5t75 -7.5q39 0 70 3.5t59.5 11t56.5 18.5t60 25l5 -9q-32 -21 -61 -37t-59.5 -27t-65.5 -17t-80 -6q-83 0 -159.5 24.5t-138.5 86.5q-38 45 -60.5 100
t-22.5 119q0 26 3.5 50.5t10.5 50.5q-66 -2 -124.5 -13.5t-124.5 -38.5q-86 -35 -162.5 -94.5t-134.5 -137.5t-91.5 -170.5t-33.5 -192.5q0 -102 34.5 -179t94 -129.5t138 -79t167.5 -26.5q77 0 148 18.5t136.5 50t127 74t119 91t112 101t107.5 103.5zM2979 95
q-16 0 -26.5 11.5t-14.5 25.5q-22 -24 -45 -45.5t-46 -40.5q-30 -24 -58.5 -38.5t-48.5 -14.5q-35 0 -50 24t-15 54q0 51 20 109q-15 -19 -30.5 -36t-29.5 -33q-48 -51 -94 -83.5t-88 -32.5q-49 0 -75.5 24.5t-26.5 68.5q0 24 7.5 48.5t18.5 48.5t25 47t27 44t20.5 33.5
t14.5 23.5t15 23t22 32q-23 -28 -46 -55.5t-46 -56.5l-35 -43q-12 -15 -28 -33.5t-37 -42.5q-38 -41 -73.5 -72t-77 -52t-93.5 -31.5t-124 -10.5q-20 0 -41 5.5t-38.5 17t-28.5 29.5t-11 44q0 20 8 39.5t22 35t33.5 25t42.5 9.5q37 0 63 -23t26 -71h-18q0 38 -21.5 57
t-49.5 19q-17 0 -33 -7.5t-28 -20t-19 -29t-7 -34.5q0 -31 26 -54t74 -23q41 0 72.5 22t55.5 59t41 85t27.5 100t15.5 104.5t6 98.5q-16 -17 -31.5 -35t-31.5 -35l-165 -186l-13 15q48 57 86 99.5t70 77.5l87 97q2 25 12 50.5t24.5 46t33 33.5t36.5 13q14 0 14 -16
q0 -9 -5.5 -19.5t-13.5 -22.5t-18 -25t-20 -25q-8 -10 -14.5 -19t-12.5 -17q1 -24 4.5 -55t8.5 -62q6 -38 11 -79.5t5 -79.5q0 -53 -24.5 -104.5t-65.5 -86.5q43 22 86 57.5t72 68.5l67 78q30 36 62 75t61.5 74t54.5 63t40 43l4 6h-99v28h119l119 166h124l-82 -107l-44 -59
h96v-28h-119q-48 -63 -91 -124t-94 -133q-15 -21 -32.5 -46.5t-32.5 -51.5t-25.5 -51t-10.5 -45q0 -18 10.5 -30t36.5 -12q34 0 76 30.5t86 77.5q24 27 52 60t52 64q9 19 20 37t24 36q28 39 62 72.5t71.5 58.5t76.5 39.5t77 14.5q28 0 44.5 -13.5t16.5 -45.5q0 -27 -11 -56
t-23 -55q-15 -29 -31 -55t-32 -49q-30 -41 -65 -83q1 -13 7 -24t18 -11q17 0 39.5 15.5t44.5 37t41.5 44.5t31.5 37q5 6 11.5 14t17 22.5t28 36.5t44.5 57q20 26 38.5 49t35.5 40t32.5 27t29.5 10q24 0 37.5 -14.5t13.5 -39.5q0 -22 -19 -65.5t-48 -96.5q24 26 54 56.5
t60 56.5q16 15 38.5 32.5t47.5 33.5t51 26.5t50 10.5q23 0 39.5 -14t16.5 -40q0 -20 -9 -46t-24 -55t-34.5 -61t-40.5 -63q-7 -10 -13.5 -19.5t-12.5 -19.5q-17 -26 -33 -50.5t-28 -45t-19 -37t-7 -26.5q0 -11 11 -11q35 0 78.5 32t89.5 83q23 26 49 56.5t49 60.5l13 -15
l-26 -33q-17 -22 -35 -43t-35 -40q-50 -53 -97 -87.5t-90 -34.5q-55 0 -76.5 18t-21.5 49q0 20 10 44t26 51t37 56t44 58l45 57l38 47.5t31.5 42t21.5 34.5t8 24q0 8 -11 8q-19 0 -42.5 -10.5t-47 -26t-45 -32.5t-36.5 -30q-24 -22 -49 -47t-47.5 -49.5t-42.5 -47t-34 -38.5
l-6 -7v1q-20 -32 -39.5 -62t-37 -56.5t-32 -48t-24.5 -35.5h-126l10 16l50 69l127 174q21 30 42 61t40 59t33.5 50.5t21.5 34.5q2 4 4.5 10t2.5 10q0 5 -7 5q-15 0 -45.5 -33.5t-70.5 -85.5l-102 -132q-11 -15 -31 -38t-44 -45.5t-49 -38.5t-46 -16zM1783 428v35t-2 34
q-55 -78 -101.5 -158t-80.5 -158t-53.5 -152.5t-19.5 -140.5q0 -68 37 -68q25 0 47.5 17.5t41 43t32 52.5t21.5 47q27 67 45.5 150t26.5 176q3 32 4 62.5t2 59.5zM2836 61q22 19 48 43.5t51 52.5q0 30 10.5 60.5t28.5 58.5q18 26 43 47t52 25q12 25 20.5 49.5t8.5 48.5
q0 13 -6 25.5t-21 12.5q-21 0 -48 -20.5t-56.5 -51.5t-58.5 -68.5t-53 -70.5q-28 -38 -52 -75t-41.5 -70t-27.5 -59.5t-10 -43.5q0 -7 5 -9.5t11 -2.5q18 0 43.5 13.5t52.5 34.5zM1775 694q5 -26 9.5 -51.5t8.5 -52.5q62 70 127.5 136t131 123.5t129.5 105t122 82.5
q-143 -61 -275 -149t-253 -194zM2210 559q8 10 17 21t16.5 21.5t13 19.5t6.5 14q-9 -1 -19 -10t-19 -22t-16 -28.5t-10 -30.5q3 3 5.5 7t5.5 8z" />
    <glyph glyph-name="eight" unicode="8" 
d="M2767 1168q108 0 209.5 -30t190.5 -96l-2 -16q-90 66 -192 94.5t-206 28.5q-49 0 -104.5 -8t-112 -22.5t-111.5 -35.5t-104 -47q-64 -38 -133.5 -92.5t-139.5 -121.5t-137.5 -143.5t-125.5 -157.5q2 -22 2 -46v-47q0 -30 -1.5 -60.5t-3.5 -62.5q-8 -96 -27 -181t-46 -151
q-14 -34 -34 -70.5t-47.5 -66.5t-62 -49t-77.5 -19q-48 0 -68.5 28t-20.5 74q0 72 29 158.5t79 178t115.5 184.5t139.5 180q-4 29 -8 56t-10 53q-72 -64 -138.5 -132t-127.5 -138q-66 -76 -132 -150t-136 -140t-146 -122t-162 -97t-184.5 -64t-213.5 -23q-104 0 -199 24.5
t-167 78.5t-114.5 139.5t-42.5 208.5q0 103 34 201t94 181t143.5 148t182.5 102q63 23 120 33t119 10h21t22 -1q4 8 9.5 20t13.5 26q32 55 77.5 97t101 70t119 42.5t131.5 14.5q131 0 244.5 -52t199.5 -154q44 -52 78 -116t57 -146q132 100 274.5 184.5t281.5 142.5
q103 42 216.5 70t232.5 30zM1230 277q115 112 244.5 228t271.5 223q-23 81 -57 146.5t-77 116.5q-78 94 -186 144.5t-233 50.5q-59 0 -116 -14t-108.5 -42.5t-95.5 -70.5t-75 -98h1q-2 -6 -5 -13t-6 -13q47 -6 89.5 -16t84 -24.5t82.5 -33t85 -41.5l-4 -9q-46 19 -88.5 34.5
t-84.5 26t-86 17.5t-92 10q-7 -23 -11 -46.5t-4 -50.5q0 -48 18 -97.5t50 -87.5q24 -26 56 -46.5t67.5 -34.5t73.5 -21.5t75 -7.5q39 0 70 3.5t59.5 11t56.5 18.5t60 25l5 -9q-32 -21 -61 -37t-59.5 -27t-65.5 -17t-80 -6q-83 0 -159.5 24.5t-138.5 86.5q-38 45 -60.5 100
t-22.5 119q0 26 3.5 50.5t10.5 50.5q-66 -2 -124.5 -13.5t-124.5 -38.5q-86 -35 -162.5 -94.5t-134.5 -137.5t-91.5 -170.5t-33.5 -192.5q0 -102 34.5 -179t94 -129.5t138 -79t167.5 -26.5q77 0 148 18.5t136.5 50t127 74t119 91t112 101t107.5 103.5zM2979 95
q-16 0 -26.5 11.5t-14.5 25.5q-22 -24 -45 -45.5t-46 -40.5q-30 -24 -58.5 -38.5t-48.5 -14.5q-35 0 -50 24t-15 54q0 51 20 109q-15 -19 -30.5 -36t-29.5 -33q-48 -51 -94 -83.5t-88 -32.5q-49 0 -75.5 24.5t-26.5 68.5q0 24 7.5 48.5t18.5 48.5t25 47t27 44t20.5 33.5
t14.5 23.5t15 23t22 32q-23 -28 -46 -55.5t-46 -56.5l-35 -43q-12 -15 -28 -33.5t-37 -42.5q-38 -41 -73.5 -72t-77 -52t-93.5 -31.5t-124 -10.5q-20 0 -41 5.5t-38.5 17t-28.5 29.5t-11 44q0 20 8 39.5t22 35t33.5 25t42.5 9.5q37 0 63 -23t26 -71h-18q0 38 -21.5 57
t-49.5 19q-17 0 -33 -7.5t-28 -20t-19 -29t-7 -34.5q0 -31 26 -54t74 -23q41 0 72.5 22t55.5 59t41 85t27.5 100t15.5 104.5t6 98.5q-16 -17 -31.5 -35t-31.5 -35l-165 -186l-13 15q48 57 86 99.5t70 77.5l87 97q2 25 12 50.5t24.5 46t33 33.5t36.5 13q14 0 14 -16
q0 -9 -5.5 -19.5t-13.5 -22.5t-18 -25t-20 -25q-8 -10 -14.5 -19t-12.5 -17q1 -24 4.5 -55t8.5 -62q6 -38 11 -79.5t5 -79.5q0 -53 -24.5 -104.5t-65.5 -86.5q43 22 86 57.5t72 68.5l67 78q30 36 62 75t61.5 74t54.5 63t40 43l4 6h-99v28h119l119 166h124l-82 -107l-44 -59
h96v-28h-119q-48 -63 -91 -124t-94 -133q-15 -21 -32.5 -46.5t-32.5 -51.5t-25.5 -51t-10.5 -45q0 -18 10.5 -30t36.5 -12q34 0 76 30.5t86 77.5q24 27 52 60t52 64q9 19 20 37t24 36q28 39 62 72.5t71.5 58.5t76.5 39.5t77 14.5q28 0 44.5 -13.5t16.5 -45.5q0 -27 -11 -56
t-23 -55q-15 -29 -31 -55t-32 -49q-30 -41 -65 -83q1 -13 7 -24t18 -11q17 0 39.5 15.5t44.5 37t41.5 44.5t31.5 37q5 6 11.5 14t17 22.5t28 36.5t44.5 57q20 26 38.5 49t35.5 40t32.5 27t29.5 10q24 0 37.5 -14.5t13.5 -39.5q0 -22 -19 -65.5t-48 -96.5q24 26 54 56.5
t60 56.5q16 15 38.5 32.5t47.5 33.5t51 26.5t50 10.5q23 0 39.5 -14t16.5 -40q0 -20 -9 -46t-24 -55t-34.5 -61t-40.5 -63q-7 -10 -13.5 -19.5t-12.5 -19.5q-17 -26 -33 -50.5t-28 -45t-19 -37t-7 -26.5q0 -11 11 -11q35 0 78.5 32t89.5 83q23 26 49 56.5t49 60.5l13 -15
l-26 -33q-17 -22 -35 -43t-35 -40q-50 -53 -97 -87.5t-90 -34.5q-55 0 -76.5 18t-21.5 49q0 20 10 44t26 51t37 56t44 58l45 57l38 47.5t31.5 42t21.5 34.5t8 24q0 8 -11 8q-19 0 -42.5 -10.5t-47 -26t-45 -32.5t-36.5 -30q-24 -22 -49 -47t-47.5 -49.5t-42.5 -47t-34 -38.5
l-6 -7v1q-20 -32 -39.5 -62t-37 -56.5t-32 -48t-24.5 -35.5h-126l10 16l50 69l127 174q21 30 42 61t40 59t33.5 50.5t21.5 34.5q2 4 4.5 10t2.5 10q0 5 -7 5q-15 0 -45.5 -33.5t-70.5 -85.5l-102 -132q-11 -15 -31 -38t-44 -45.5t-49 -38.5t-46 -16zM1783 428v35t-2 34
q-55 -78 -101.5 -158t-80.5 -158t-53.5 -152.5t-19.5 -140.5q0 -68 37 -68q25 0 47.5 17.5t41 43t32 52.5t21.5 47q27 67 45.5 150t26.5 176q3 32 4 62.5t2 59.5zM2836 61q22 19 48 43.5t51 52.5q0 30 10.5 60.5t28.5 58.5q18 26 43 47t52 25q12 25 20.5 49.5t8.5 48.5
q0 13 -6 25.5t-21 12.5q-21 0 -48 -20.5t-56.5 -51.5t-58.5 -68.5t-53 -70.5q-28 -38 -52 -75t-41.5 -70t-27.5 -59.5t-10 -43.5q0 -7 5 -9.5t11 -2.5q18 0 43.5 13.5t52.5 34.5zM1775 694q5 -26 9.5 -51.5t8.5 -52.5q62 70 127.5 136t131 123.5t129.5 105t122 82.5
q-143 -61 -275 -149t-253 -194zM2210 559q8 10 17 21t16.5 21.5t13 19.5t6.5 14q-9 -1 -19 -10t-19 -22t-16 -28.5t-10 -30.5q3 3 5.5 7t5.5 8z" />
    <glyph glyph-name="nine" unicode="9" 
d="M2767 1168q108 0 209.5 -30t190.5 -96l-2 -16q-90 66 -192 94.5t-206 28.5q-49 0 -104.5 -8t-112 -22.5t-111.5 -35.5t-104 -47q-64 -38 -133.5 -92.5t-139.5 -121.5t-137.5 -143.5t-125.5 -157.5q2 -22 2 -46v-47q0 -30 -1.5 -60.5t-3.5 -62.5q-8 -96 -27 -181t-46 -151
q-14 -34 -34 -70.5t-47.5 -66.5t-62 -49t-77.5 -19q-48 0 -68.5 28t-20.5 74q0 72 29 158.5t79 178t115.5 184.5t139.5 180q-4 29 -8 56t-10 53q-72 -64 -138.5 -132t-127.5 -138q-66 -76 -132 -150t-136 -140t-146 -122t-162 -97t-184.5 -64t-213.5 -23q-104 0 -199 24.5
t-167 78.5t-114.5 139.5t-42.5 208.5q0 103 34 201t94 181t143.5 148t182.5 102q63 23 120 33t119 10h21t22 -1q4 8 9.5 20t13.5 26q32 55 77.5 97t101 70t119 42.5t131.5 14.5q131 0 244.5 -52t199.5 -154q44 -52 78 -116t57 -146q132 100 274.5 184.5t281.5 142.5
q103 42 216.5 70t232.5 30zM1230 277q115 112 244.5 228t271.5 223q-23 81 -57 146.5t-77 116.5q-78 94 -186 144.5t-233 50.5q-59 0 -116 -14t-108.5 -42.5t-95.5 -70.5t-75 -98h1q-2 -6 -5 -13t-6 -13q47 -6 89.5 -16t84 -24.5t82.5 -33t85 -41.5l-4 -9q-46 19 -88.5 34.5
t-84.5 26t-86 17.5t-92 10q-7 -23 -11 -46.5t-4 -50.5q0 -48 18 -97.5t50 -87.5q24 -26 56 -46.5t67.5 -34.5t73.5 -21.5t75 -7.5q39 0 70 3.5t59.5 11t56.5 18.5t60 25l5 -9q-32 -21 -61 -37t-59.5 -27t-65.5 -17t-80 -6q-83 0 -159.5 24.5t-138.5 86.5q-38 45 -60.5 100
t-22.5 119q0 26 3.5 50.5t10.5 50.5q-66 -2 -124.5 -13.5t-124.5 -38.5q-86 -35 -162.5 -94.5t-134.5 -137.5t-91.5 -170.5t-33.5 -192.5q0 -102 34.5 -179t94 -129.5t138 -79t167.5 -26.5q77 0 148 18.5t136.5 50t127 74t119 91t112 101t107.5 103.5zM2979 95
q-16 0 -26.5 11.5t-14.5 25.5q-22 -24 -45 -45.5t-46 -40.5q-30 -24 -58.5 -38.5t-48.5 -14.5q-35 0 -50 24t-15 54q0 51 20 109q-15 -19 -30.5 -36t-29.5 -33q-48 -51 -94 -83.5t-88 -32.5q-49 0 -75.5 24.5t-26.5 68.5q0 24 7.5 48.5t18.5 48.5t25 47t27 44t20.5 33.5
t14.5 23.5t15 23t22 32q-23 -28 -46 -55.5t-46 -56.5l-35 -43q-12 -15 -28 -33.5t-37 -42.5q-38 -41 -73.5 -72t-77 -52t-93.5 -31.5t-124 -10.5q-20 0 -41 5.5t-38.5 17t-28.5 29.5t-11 44q0 20 8 39.5t22 35t33.5 25t42.5 9.5q37 0 63 -23t26 -71h-18q0 38 -21.5 57
t-49.5 19q-17 0 -33 -7.5t-28 -20t-19 -29t-7 -34.5q0 -31 26 -54t74 -23q41 0 72.5 22t55.5 59t41 85t27.5 100t15.5 104.5t6 98.5q-16 -17 -31.5 -35t-31.5 -35l-165 -186l-13 15q48 57 86 99.5t70 77.5l87 97q2 25 12 50.5t24.5 46t33 33.5t36.5 13q14 0 14 -16
q0 -9 -5.5 -19.5t-13.5 -22.5t-18 -25t-20 -25q-8 -10 -14.5 -19t-12.5 -17q1 -24 4.5 -55t8.5 -62q6 -38 11 -79.5t5 -79.5q0 -53 -24.5 -104.5t-65.5 -86.5q43 22 86 57.5t72 68.5l67 78q30 36 62 75t61.5 74t54.5 63t40 43l4 6h-99v28h119l119 166h124l-82 -107l-44 -59
h96v-28h-119q-48 -63 -91 -124t-94 -133q-15 -21 -32.5 -46.5t-32.5 -51.5t-25.5 -51t-10.5 -45q0 -18 10.5 -30t36.5 -12q34 0 76 30.5t86 77.5q24 27 52 60t52 64q9 19 20 37t24 36q28 39 62 72.5t71.5 58.5t76.5 39.5t77 14.5q28 0 44.5 -13.5t16.5 -45.5q0 -27 -11 -56
t-23 -55q-15 -29 -31 -55t-32 -49q-30 -41 -65 -83q1 -13 7 -24t18 -11q17 0 39.5 15.5t44.5 37t41.5 44.5t31.5 37q5 6 11.5 14t17 22.5t28 36.5t44.5 57q20 26 38.5 49t35.5 40t32.5 27t29.5 10q24 0 37.5 -14.5t13.5 -39.5q0 -22 -19 -65.5t-48 -96.5q24 26 54 56.5
t60 56.5q16 15 38.5 32.5t47.5 33.5t51 26.5t50 10.5q23 0 39.5 -14t16.5 -40q0 -20 -9 -46t-24 -55t-34.5 -61t-40.5 -63q-7 -10 -13.5 -19.5t-12.5 -19.5q-17 -26 -33 -50.5t-28 -45t-19 -37t-7 -26.5q0 -11 11 -11q35 0 78.5 32t89.5 83q23 26 49 56.5t49 60.5l13 -15
l-26 -33q-17 -22 -35 -43t-35 -40q-50 -53 -97 -87.5t-90 -34.5q-55 0 -76.5 18t-21.5 49q0 20 10 44t26 51t37 56t44 58l45 57l38 47.5t31.5 42t21.5 34.5t8 24q0 8 -11 8q-19 0 -42.5 -10.5t-47 -26t-45 -32.5t-36.5 -30q-24 -22 -49 -47t-47.5 -49.5t-42.5 -47t-34 -38.5
l-6 -7v1q-20 -32 -39.5 -62t-37 -56.5t-32 -48t-24.5 -35.5h-126l10 16l50 69l127 174q21 30 42 61t40 59t33.5 50.5t21.5 34.5q2 4 4.5 10t2.5 10q0 5 -7 5q-15 0 -45.5 -33.5t-70.5 -85.5l-102 -132q-11 -15 -31 -38t-44 -45.5t-49 -38.5t-46 -16zM1783 428v35t-2 34
q-55 -78 -101.5 -158t-80.5 -158t-53.5 -152.5t-19.5 -140.5q0 -68 37 -68q25 0 47.5 17.5t41 43t32 52.5t21.5 47q27 67 45.5 150t26.5 176q3 32 4 62.5t2 59.5zM2836 61q22 19 48 43.5t51 52.5q0 30 10.5 60.5t28.5 58.5q18 26 43 47t52 25q12 25 20.5 49.5t8.5 48.5
q0 13 -6 25.5t-21 12.5q-21 0 -48 -20.5t-56.5 -51.5t-58.5 -68.5t-53 -70.5q-28 -38 -52 -75t-41.5 -70t-27.5 -59.5t-10 -43.5q0 -7 5 -9.5t11 -2.5q18 0 43.5 13.5t52.5 34.5zM1775 694q5 -26 9.5 -51.5t8.5 -52.5q62 70 127.5 136t131 123.5t129.5 105t122 82.5
q-143 -61 -275 -149t-253 -194zM2210 559q8 10 17 21t16.5 21.5t13 19.5t6.5 14q-9 -1 -19 -10t-19 -22t-16 -28.5t-10 -30.5q3 3 5.5 7t5.5 8z" />
    <glyph glyph-name="colon" unicode=":" horiz-adv-x="402" 
d="M168 270q21 0 35.5 -13.5t14.5 -33.5t-14.5 -33.5t-35.5 -13.5t-35.5 13.5t-14.5 33.5t14.5 33.5t35.5 13.5zM284 488q21 0 36 -13.5t15 -33.5t-15 -33.5t-36 -13.5q-20 0 -35 13.5t-15 33.5t15 33.5t35 13.5z" />
    <glyph glyph-name="semicolon" unicode=";" horiz-adv-x="416" 
d="M182 270q21 0 35.5 -13.5t14.5 -33.5q0 -24 -17 -48.5t-39 -37.5q-26 -14 -48 -14q-5 0 -10.5 1.5t-13.5 3.5l7 20q5 -3 10.5 -4.5t8.5 -1.5q18 0 32 8q8 4 14.5 10t7.5 12q-1 1 -2.5 2t-6.5 2q-18 2 -31 15.5t-13 31.5q0 20 15 33.5t36 13.5zM298 488q21 0 35.5 -13.5
t14.5 -33.5t-14.5 -33.5t-35.5 -13.5t-35.5 13.5t-14.5 33.5t14.5 33.5t35.5 13.5z" />
    <glyph glyph-name="less" unicode="&#x3c;" horiz-adv-x="663" 
d="M538 496q17 7 34 7t26 -7.5t9 -18.5q-1 -10 -13.5 -21.5t-35.5 -17.5q-36 -9 -76.5 -18.5t-91 -21.5t-114 -28t-146.5 -37q69 -17 128.5 -30.5t94.5 -21.5q23 -5 45 -10t45 -10q26 -6 37.5 -17.5t11.5 -22.5q-1 -11 -9.5 -17.5t-25.5 -6.5q-16 0 -34 6l-75 29l-52 20
t-56 21t-66 23.5t-84 27.5l-25 9l25 8q88 28 150 48.5t111 37.5t92.5 33t94.5 36z" />
    <glyph glyph-name="equal" unicode="=" horiz-adv-x="717" 
d="M615 443q23 0 35 -10t12 -21q-1 -17 -14 -23.5t-28 -6.5h-4l-151 6q-94 3 -281 6v19q91 4 152.5 7.5t107.5 7t85 7t85 8.5h1zM139 292q42 -2 80 -4t85.5 -3.5t109.5 -3t152 -2.5v-18q-57 -3 -102.5 -5t-82 -4.5t-66 -4.5t-54.5 -4l-121 -12h1q-5 -1 -8 -1q-22 0 -33.5 10
t-11.5 21q0 19 17.5 25t33.5 6z" />
    <glyph glyph-name="greater" unicode="&#x3e;" horiz-adv-x="680" 
d="M636 333l-26 -9q-94 -30 -157.5 -51.5t-111 -38t-85 -30.5t-79.5 -30q-20 -8 -30 -10t-18 -2q-17 0 -26 7t-9 18t11.5 22t37.5 18q45 10 82.5 19t83 20t107 27t154.5 40q-67 17 -125.5 30.5t-93.5 20.5q-23 5 -46.5 10t-46.5 10q-26 6 -37.5 17.5t-11.5 22.5t9 17.5
t26 6.5q15 0 37 -7l74 -29q25 -10 51 -20t56 -21t66.5 -23.5t81.5 -26.5z" />
    <glyph glyph-name="question" unicode="?" horiz-adv-x="727" 
d="M662 882q27 0 55 -5t51.5 -17.5t38 -34.5t14.5 -56q0 -64 -27 -118.5t-71 -103.5t-100 -93.5t-115 -87.5q-42 -31 -83.5 -62.5t-80 -64t-71 -67.5t-56.5 -74q-2 0 -5 2q-5 1 -10 7q21 37 48.5 70.5t58.5 64t65 59.5t67 56l46 39q43 36 88 79t81 92t59 104.5t23 117.5
q0 32 -19 53.5t-61 21.5q-69 0 -133 -36t-115 -89q-21 -21 -43 -47t-40 -55t-29.5 -60t-11.5 -62q0 -22 11 -35t35 -13q50 0 97.5 19.5t88.5 51.5q45 35 77.5 82.5t43.5 94.5l20 -2q-13 -51 -47 -101.5t-82 -88.5q-42 -34 -90.5 -54t-100.5 -20q-55 0 -89 23.5t-34 59.5
q0 25 10 54.5t29 60.5t45.5 62t58.5 59q28 24 64 45t75.5 36.5t81 24t82.5 8.5zM156 66q21 0 35.5 -13.5t14.5 -33.5t-14.5 -33.5t-35.5 -13.5t-35.5 13.5t-14.5 33.5t14.5 33.5t35.5 13.5z" />
    <glyph glyph-name="at" unicode="@" horiz-adv-x="1221" 
d="M709 -5q-40 0 -55 17t-15 44q0 21 9 47.5t22 53.5q-29 -32 -57 -60.5t-56 -50.5q-31 -24 -57.5 -38.5t-49.5 -14.5q-35 0 -50 24.5t-15 59.5q0 25 8 56.5t21 64t29.5 64.5t34.5 59q28 37 62.5 70.5t71.5 59t76 40.5t76 15q30 0 46.5 -14.5t16.5 -43.5q0 -14 -3 -32l60 88
h128l-115 -152q-75 -99 -145 -201q-8 -11 -18 -26.5t-19 -32t-15.5 -32t-6.5 -27.5q0 -17 20 -17q47 0 93.5 19.5t88.5 53.5t77.5 79t62 95t41 102.5t14.5 102.5q0 59 -20 102.5t-56.5 72t-86.5 42t-110 13.5q-69 0 -138.5 -23t-135 -61t-124.5 -87t-107 -101
q-39 -46 -72 -95.5t-56.5 -100.5t-36.5 -101t-13 -96q0 -48 16 -89.5t51 -71.5t90 -47.5t132 -17.5q71 0 135.5 22t114.5 50q28 17 52.5 36t45 37t36 34t25.5 28l10 -15q-22 -28 -63 -64.5t-97 -69.5q-54 -32 -121 -54.5t-142 -22.5q-100 0 -172 20.5t-118 56.5t-67.5 85.5
t-21.5 108.5q0 49 15.5 103t44 108t67.5 106.5t87 99.5q52 48 114.5 91.5t135.5 76.5t156.5 52.5t176.5 19.5q58 0 118 -11t109 -38.5t80 -74.5t31 -118q0 -52 -18.5 -108t-51 -109t-77 -100.5t-96 -83.5t-108.5 -57t-115 -21zM546 61q32 26 66 61t67 76q28 32 52 69t43 73
q12 23 23 51t11 57q0 12 -6 24t-21 12q-22 0 -51.5 -23t-60.5 -57t-61 -73t-53 -71q-26 -36 -48 -71.5t-38 -66.5t-25.5 -55.5t-9.5 -39.5q0 -14 16 -14q18 0 42.5 12.5t53.5 35.5z" />
    <glyph glyph-name="A" unicode="A" horiz-adv-x="1919" 
d="M2767 1168q108 0 209.5 -30t190.5 -96l-2 -16q-90 66 -192 94.5t-206 28.5q-49 0 -104.5 -8t-112 -22.5t-111.5 -35.5t-104 -47q-64 -38 -133.5 -92.5t-139.5 -121.5t-137.5 -143.5t-125.5 -157.5q2 -22 2 -46v-47q0 -30 -1.5 -60.5t-3.5 -62.5q-8 -96 -27 -181t-46 -151
q-14 -34 -34 -70.5t-47.5 -66.5t-62 -49t-77.5 -19q-48 0 -68.5 28t-20.5 74q0 72 29 158.5t79 178t115.5 184.5t139.5 180q-4 29 -8 56t-10 53q-72 -64 -138.5 -132t-127.5 -138q-66 -76 -132 -150t-136 -140t-146 -122t-162 -97t-184.5 -64t-213.5 -23q-104 0 -199 24.5
t-167 78.5t-114.5 139.5t-42.5 208.5q0 103 34 201t94 181t143.5 148t182.5 102q63 23 120 33t119 10h21t22 -1q4 8 9.5 20t13.5 26q32 55 77.5 97t101 70t119 42.5t131.5 14.5q131 0 244.5 -52t199.5 -154q44 -52 78 -116t57 -146q132 100 274.5 184.5t281.5 142.5
q103 42 216.5 70t232.5 30zM1230 277q115 112 244.5 228t271.5 223q-23 81 -57 146.5t-77 116.5q-78 94 -186 144.5t-233 50.5q-59 0 -116 -14t-108.5 -42.5t-95.5 -70.5t-75 -98h1q-2 -6 -5 -13t-6 -13q47 -6 89.5 -16t84 -24.5t82.5 -33t85 -41.5l-4 -9q-46 19 -88.5 34.5
t-84.5 26t-86 17.5t-92 10q-7 -23 -11 -46.5t-4 -50.5q0 -48 18 -97.5t50 -87.5q24 -26 56 -46.5t67.5 -34.5t73.5 -21.5t75 -7.5q39 0 70 3.5t59.5 11t56.5 18.5t60 25l5 -9q-32 -21 -61 -37t-59.5 -27t-65.5 -17t-80 -6q-83 0 -159.5 24.5t-138.5 86.5q-38 45 -60.5 100
t-22.5 119q0 26 3.5 50.5t10.5 50.5q-66 -2 -124.5 -13.5t-124.5 -38.5q-86 -35 -162.5 -94.5t-134.5 -137.5t-91.5 -170.5t-33.5 -192.5q0 -102 34.5 -179t94 -129.5t138 -79t167.5 -26.5q77 0 148 18.5t136.5 50t127 74t119 91t112 101t107.5 103.5zM1783 428v35t-2 34
q-55 -78 -101.5 -158t-80.5 -158t-53.5 -152.5t-19.5 -140.5q0 -68 37 -68q25 0 47.5 17.5t41 43t32 52.5t21.5 47q27 67 45.5 150t26.5 176q3 32 4 62.5t2 59.5zM1775 694q5 -26 9.5 -51.5t8.5 -52.5q62 70 127.5 136t131 123.5t129.5 105t122 82.5q-143 -61 -275 -149
t-253 -194z" />
    <glyph glyph-name="B" unicode="B" horiz-adv-x="2019" 
d="M1805 220q0 66 -28.5 124t-89.5 96q-33 -3 -67 -3q-25 0 -57 3.5t-60 10.5t-47 18t-19 25q0 8 10.5 16.5t33.5 8.5q66 0 118.5 -15t97.5 -35q68 13 123 45t94 76.5t60 98t21 109.5q0 71 -27 132t-88 108l-20 -13q-70 -48 -136 -117t-133 -160q-78 -103 -140.5 -211
t-123.5 -219q-47 -85 -95.5 -170t-103.5 -170q-50 -74 -120 -132t-152 -97.5t-172 -60.5t-180 -21q-69 0 -136.5 12.5t-128.5 40.5t-111.5 72t-84.5 107q-26 54 -36.5 104t-10.5 109q0 42 4 76.5t11.5 66t18 61t24.5 60.5q30 67 66 118.5t90 103.5q56 53 113 89t128 62
q61 22 120 33t120 11q14 0 27.5 -0.5t28.5 -1.5q21 29 48.5 57.5t57.5 55.5q143 126 317.5 191.5t364.5 65.5q115 0 203 -25t154 -64q58 32 127 53t139 21q75 0 136.5 -28.5t124.5 -78.5l-2 -16q-57 47 -121 75.5t-138 28.5q-66 0 -129 -20t-116 -49q81 -54 120 -127.5
t39 -151.5q0 -56 -21.5 -110t-64 -99t-105 -77.5t-144.5 -46.5q80 -47 115 -117.5t35 -151.5q0 -54 -15.5 -107.5t-45 -103t-73 -92t-99.5 -74t-124 -49.5t-146 -18q-38 0 -77.5 3.5t-78.5 12.5t-76 25t-69 40l2 16q51 -41 116.5 -56.5t127.5 -15.5q103 0 190.5 42t151 109
t99 149t35.5 162zM1054 61q56 72 106 148.5t100 154.5q67 105 141 213t160 204q66 73 137 143t141 117l19 12q-56 37 -136.5 60.5t-186.5 23.5q-90 0 -177.5 -20t-170 -55.5t-158.5 -85t-143 -109.5q-21 -20 -40.5 -40.5t-36.5 -41.5q85 -14 162.5 -41.5t159.5 -70.5l-4 -9
q-45 19 -87 33.5t-84 25.5t-84.5 18t-89.5 10q-25 -34 -48 -72.5t-41 -80t-29 -85.5t-11 -89q0 -118 68 -183.5t185 -77.5q35 1 73 9t70 26l5 -8q-36 -28 -74.5 -39.5t-82.5 -11.5q-61 0 -114 19t-92.5 55.5t-62 89.5t-22.5 121q0 87 31.5 167.5t82.5 160.5
q-66 -1 -125.5 -13t-125.5 -38q-64 -26 -116 -60.5t-103 -84.5q-49 -48 -82 -95t-61 -108q-28 -60 -44 -123.5t-16 -131.5q0 -45 10.5 -90.5t28.5 -87.5q28 -55 69 -97t90.5 -70.5t104.5 -43t112 -14.5q90 0 173 30.5t157.5 81t140 116.5t121.5 138zM1619 461h13t13 1
q-35 15 -76 26t-88 11q-11 0 -14.5 -2t-3.5 -4q0 -8 14.5 -13.5t37 -10t50 -6.5t54.5 -2z" />
    <glyph glyph-name="C" unicode="C" horiz-adv-x="1608" 
d="M697 591q62 78 139.5 152.5t168.5 137.5q-32 18 -69.5 36t-81 32t-93 23t-106.5 9q-96 0 -188 -37.5t-164 -104t-116 -157.5t-44 -197q0 -64 16.5 -124t45.5 -119l-8 -4q-39 59 -64 127.5t-25 143.5q0 106 43.5 201t117 166t170.5 112.5t204 41.5q65 0 120.5 -12.5
t102.5 -32t87 -43.5t74 -46q68 46 141 84t150 65t157 42t163 15q47 0 98.5 -8t95 -30t71.5 -59.5t28 -95.5q0 -59 -29.5 -105.5t-78 -79.5t-111 -50.5t-128.5 -17.5q-85 0 -152 13.5t-123.5 36t-106 52t-97.5 60.5l-51 33q-85 -67 -157.5 -145t-129.5 -161
q-78 -113 -122.5 -224t-45.5 -203q0 -82 38.5 -140t123.5 -79q6 72 29 135t63 131q43 74 104 139t135.5 113.5t160.5 76.5t178 28q27 0 52 -6t44 -19.5t30 -35.5t11 -54q0 -48 -19 -96t-47 -90q-20 -31 -47.5 -64t-61 -64.5t-72 -61t-80.5 -53.5q-78 -45 -173.5 -76.5
t-203.5 -31.5h-40q-2 -11 -3.5 -26.5t-1.5 -41.5q0 -32 4 -62t15 -65q12 -41 29.5 -73t44.5 -68l-7 -7q-37 31 -61 61.5t-44 72.5q-20 41 -28.5 78.5t-11.5 83.5q-1 6 -1 14.5v14.5v24q-68 10 -116.5 33t-80 57.5t-47 78.5t-15.5 95q0 50 13.5 105t39 112.5t62 116.5
t82.5 117zM1584 675q65 0 124.5 17.5t104.5 49t72 74.5t27 94q0 50 -25.5 83.5t-65.5 53.5t-89 28t-95 8q-78 0 -153.5 -16.5t-146.5 -45.5t-137.5 -69t-127.5 -87l9 -6q51 -35 102.5 -68t111.5 -58.5t130.5 -41.5t158.5 -16zM918 126q-35 -60 -57.5 -116.5t-33.5 -120.5
q9 -1 18 -0.5t18 0.5q109 0 201 30.5t168 73.5q85 48 149.5 111.5t105.5 126.5q23 37 42.5 83t19.5 92q0 43 -25 68.5t-71 25.5q-78 0 -156 -33.5t-149 -87t-130.5 -120.5t-99.5 -133z" />
    <glyph glyph-name="D" unicode="D" horiz-adv-x="2083" 
d="M1876 1038q88 -68 140 -171.5t52 -228.5q0 -78 -16 -145.5t-46 -141.5q-20 -48 -42 -90t-48.5 -80.5t-57.5 -74.5t-68 -73h1q-62 -61 -135 -111.5t-153 -87t-166 -57t-173 -20.5q-48 0 -95.5 6.5t-95.5 20.5l1 14q52 -16 98.5 -20t90.5 -4q84 0 163.5 23.5t152 64.5
t137.5 97.5t121 122.5q58 71 103.5 144t82.5 159q17 40 31.5 77.5t24.5 75.5t15.5 78t5.5 85q0 49 -7 94.5t-23 87t-43 77.5t-67 67q-2 -2 -3 -2h1q-70 -48 -136 -117t-133 -160q-43 -57 -79.5 -112.5t-69.5 -110.5t-63 -109.5t-60 -108.5q-45 -81 -90.5 -162.5
t-100.5 -166.5q-35 -51 -80.5 -95.5t-99 -81t-112.5 -64t-120 -43.5q-50 -13 -103 -20t-109 -7q-110 0 -202.5 28.5t-160.5 85.5t-106 141.5t-38 196.5q0 90 26 175t72.5 160t110.5 137t140.5 107t163 70t177.5 25h16q5 0 8 -0.5t8 -0.5l3 6q70 85 159 154t189 115
q89 38 193.5 61.5t212.5 23.5q103 0 201 -22t180 -77q1 1 1 0t2 1q33 18 69 34.5t74.5 29.5t77.5 20.5t78 7.5q73 0 138 -29.5t122 -77.5l-2 -16q-57 48 -120.5 76.5t-136.5 28.5q-36 0 -73.5 -6.5t-73 -18.5t-68.5 -28t-61 -34zM1556 784q69 75 138.5 141.5t143.5 116.5
q-39 25 -84 42.5t-92 28.5t-95 15.5t-93 4.5q-218 0 -394 -88q-85 -44 -160 -108t-142 -149q49 -6 93 -16t86 -24t84 -32.5t88 -42.5l-4 -9q-47 19 -91 35.5t-88 28t-89.5 18t-96.5 6.5h-10q-26 -39 -46.5 -78.5t-39.5 -86.5q-17 -44 -26 -84t-9 -85q0 -35 5 -67t17 -66
q11 -28 23.5 -50t32.5 -43v1q35 -35 78 -55q23 -10 44 -15t45 -7h10q29 0 53.5 5t49.5 17l5 -7q-29 -20 -56.5 -29t-61.5 -11h-10q-24 0 -46 3.5t-45 11.5q-27 10 -50 22.5t-46 33.5q-26 24 -42.5 48t-30.5 56q-16 39 -22.5 74.5t-6.5 77.5q0 54 9 97.5t27 91.5
q29 78 75 144q-81 -3 -160 -28t-150 -68t-131.5 -102t-104.5 -129.5t-69 -151t-25 -166.5q0 -90 29.5 -165.5t83.5 -130t130.5 -85t170.5 -30.5q62 0 122 14.5t116 41.5q103 51 192 133.5t162 176.5q57 72 110 154.5t101 157.5q65 103 136 209.5t157 201.5z" />
    <glyph glyph-name="E" unicode="E" horiz-adv-x="1613" 
d="M1616 996q62 0 109.5 -15t80 -39.5t49 -55t16.5 -61.5q0 -27 -13.5 -54t-41 -48.5t-69 -35t-96.5 -13.5q-58 0 -107 14t-93 38t-84 56t-80 67q-37 -42 -54 -86.5t-18 -85.5q0 -15 2 -29t7 -27q30 3 57 3q10 0 28.5 -2t37 -7.5t32.5 -15.5t14 -26q0 -12 -6.5 -19.5
t-16.5 -12t-21.5 -6t-21.5 -1.5q-60 0 -101.5 15.5t-64.5 42.5q-65 -15 -134 -44t-134 -70t-123 -93t-101.5 -113.5t-69 -131.5t-25.5 -146q0 -51 13.5 -86.5t38.5 -57.5q6 48 19.5 91.5t33.5 87.5q47 98 111.5 177t153.5 144q78 57 148 83q21 8 48.5 16t57.5 14.5t62 10.5
t64 4q37 0 75.5 -7.5t69 -25t50 -47.5t19.5 -75q0 -53 -22 -101.5t-52 -93.5q-23 -33 -54 -67t-68.5 -66.5t-80 -62.5t-87.5 -55q-85 -45 -178 -71.5t-191 -26.5q-29 0 -59 3t-56 9q-1 -5 -1 -14.5v-14.5q0 -56 19 -113t57 -102q32 -35 68 -58t82 -43l-3 -10
q-52 12 -92.5 30t-82.5 53q-57 49 -85 116.5t-30 147.5v26q-34 12 -63.5 30.5t-51.5 42.5t-35 55t-13 69q0 75 31 144.5t83 131.5t121 115.5t146 95.5t156 71.5t152 44.5q-19 31 -19 70q0 50 30 103t90 100q-57 51 -116.5 96t-124 79t-136.5 53.5t-154 19.5
q-72 0 -144 -14.5t-138.5 -43.5t-124 -71t-100 -96.5t-66.5 -121.5t-24 -145q0 -58 18 -106t53 -82t85 -53t115 -19q69 0 132.5 27.5t119.5 71.5l7 -8q-26 -27 -57 -50t-66 -40.5t-73.5 -27.5t-78.5 -10q-68 0 -124.5 21t-97 60t-63 95t-22.5 127q0 82 26.5 151.5t72 126
t107 99.5t131 72t143.5 43.5t145 14.5q87 0 161 -17t141.5 -49.5t133 -80.5t135.5 -110q8 5 14.5 10t14.5 10q70 46 154 64t168 18zM696 -168q-2 -5 -2.5 -9.5t-1.5 -9.5q27 -8 55 -11.5t60 -3.5q181 0 359 95q91 49 163.5 113.5t119.5 132.5q27 39 48.5 85.5t21.5 98.5
q0 34 -15 59t-39 41t-54.5 23.5t-62.5 7.5q-31 0 -63.5 -5.5t-63.5 -15t-60 -21.5t-53 -25q-29 -17 -61 -38.5t-64 -48.5q-39 -33 -72 -67t-61.5 -70.5t-53 -77t-46.5 -87.5q-20 -43 -33 -82t-21 -84zM1654 692q50 2 87 14t61.5 30.5t36.5 42t12 47.5q0 28 -15 55t-45 48.5
t-74.5 34.5t-102.5 13q-77 0 -152 -21t-136 -71q-5 -4 -10 -8.5t-11 -10.5l-2 -2l-2 -2q39 -35 78.5 -65.5t82 -53.5t89.5 -37t103 -14zM1281 605h-24t-25 -2q14 -23 37.5 -36.5t58.5 -13.5q4 0 12 0.5t15.5 2.5t13 6t5.5 10q0 9 -11.5 15.5t-27 10.5t-31 5.5t-23.5 1.5z
" />
    <glyph glyph-name="F" unicode="F" horiz-adv-x="1619" 
d="M1828 922q-11 2 -21 3t-19 1q-71 0 -132.5 -44t-117.5 -116q-46 -59 -86.5 -131t-78.5 -148h1l32 -4q32 -5 63.5 -8.5t64.5 -3.5q44 0 78 8.5t73 31.5l7 -7q-42 -43 -94 -63t-115 -20q-29 0 -57 2.5t-59 7.5l-19 2l-69 -151q-40 -89 -77 -167.5t-75 -136.5
q-50 -76 -121 -134.5t-154.5 -98t-175.5 -59.5t-185 -20q-68 0 -133.5 12.5t-124 40.5t-108 72.5t-83.5 107.5q-26 54 -36.5 104t-10.5 109q0 137 57 261.5t157 223.5q54 53 112.5 89.5t127.5 63.5q14 5 29 9.5t30 9.5q37 99 102.5 170t150.5 116.5t184 66.5t203 21
q74 0 152 -15t155.5 -38.5t152 -52.5t141.5 -57q24 -10 46 -17t39 -12q23 -6 42.5 -8t35.5 -2q11 0 21 0.5t19 1.5h-1q7 1 13 1h11q18 0 28.5 -8t10.5 -21q0 -5 -8 -16.5t-30 -11.5q-21 0 -45 6t-47 14h1q-15 5 -29.5 9t-27.5 6zM1512 793q61 69 128 110.5t142 41.5h1h-1
l-40 17q-68 28 -139.5 57t-145 51.5t-148 37t-147.5 14.5q-96 0 -186.5 -21t-168 -63t-139 -106t-98.5 -149q54 9 113 9q20 0 40.5 -1t40.5 -3q100 -11 187 -39.5t179 -75.5l-4 -9q-47 19 -91 35.5t-88 28t-89.5 18t-96.5 6.5h-28q-50 0 -94.5 -4.5t-89.5 -17.5q-1 -1 0 -1
q-8 -28 -11.5 -52.5t-3.5 -50.5q0 -40 9 -79.5t32 -76.5q37 -60 100 -89t133 -35q35 1 67 6t61 19q40 19 66.5 45t49.5 59l8 -4q-23 -41 -48 -70t-65 -53q-35 -20 -68.5 -28.5t-80.5 -8.5q-78 0 -146.5 32t-118.5 100q-50 80 -50 187q0 21 1.5 40t6.5 40l-3 -1
q-5 -2 -10 -3.5t-10 -3.5q-33 -14 -62 -29t-55.5 -32.5t-51.5 -38.5t-50 -46q-45 -45 -82.5 -97.5t-64 -110.5t-41.5 -121t-15 -129q0 -48 8.5 -89.5t30.5 -88.5q27 -57 67.5 -99.5t90.5 -70.5t106.5 -42t115.5 -14q112 0 213.5 47t189 122.5t160 169.5t128.5 189
q42 70 84 147l41 73q-9 1 -18.5 1h-18.5q-23 0 -45.5 -3t-46.5 -14q-20 -9 -35.5 -20t-30.5 -25l-7 6q12 22 25 37.5t32 29.5q32 21 69 30.5t79 9.5h12.5t13.5 -1q48 85 98 162t104 138zM1783 945h-1h1z" />
    <glyph glyph-name="G" unicode="G" horiz-adv-x="1423" 
d="M1745 928q14 -20 14 -45q0 -32 -18 -57q-15 -23 -38.5 -39t-50.5 -26.5t-56 -15.5t-55 -5q-90 0 -174 30.5t-163 73.5q-11 -7 -24 -16t-30 -22q-51 -36 -95 -77.5t-82 -85.5q-36 -42 -73 -94.5t-67 -109.5t-49 -115t-19 -112q0 -25 7 -47t21 -39t35 -27t50 -10q20 0 40 4
t39 10q42 14 82.5 40t79.5 60t76.5 73t75.5 80q39 42 79 83.5t82 79t87 68.5t93 51q20 8 43 14t49 11v-19q-23 -4 -42.5 -10t-41.5 -15q-54 -24 -104.5 -66.5t-97.5 -98.5t-91 -122t-84.5 -135.5t-77 -140.5t-69.5 -136q-11 -22 -22 -42.5t-22 -42.5q54 -19 104 -30.5
t95 -11.5q53 0 103 18.5t97 68.5l10 -10q-50 -53 -102 -74.5t-108 -21.5q-50 0 -101.5 12.5t-106.5 31.5q-25 -47 -46 -86t-39 -67q-50 -77 -121.5 -135.5t-155 -97.5t-175 -59t-182.5 -20q-60 0 -118.5 13t-105.5 42.5t-76 78.5t-29 121q0 94 40 169.5t105.5 128t148 80.5
t167.5 28q60 0 115 -9.5t105 -24.5t96 -33.5t88 -36.5q24 -11 48 -21t47 -18l13 -4q20 30 41 63t43 68q52 81 107.5 167t115.5 167q-38 -41 -75.5 -79.5t-76 -71.5t-78.5 -58.5t-83 -38.5q-20 -6 -40.5 -10t-42.5 -4q-40 0 -76 13t-63.5 37t-43.5 59.5t-16 80.5
q0 61 21 123.5t55 121t76.5 110.5t85.5 93q35 33 75 64.5t85 59.5q25 15 40 23.5t34 18.5l-45 27q-46 28 -93.5 55t-97.5 48t-103 34t-109 13q-77 0 -151 -29.5t-132.5 -82.5t-94 -125.5t-35.5 -158.5q0 -121 67.5 -196t191.5 -92l-1 -10q-69 0 -127.5 22t-102 61.5
t-68 94.5t-24.5 120q0 96 37.5 174t99.5 133t142 84.5t166 29.5q66 0 126.5 -14.5t116.5 -38.5t109.5 -54t104.5 -60l42 -26q91 45 194.5 74.5t224.5 29.5q21 0 43 -3t43 -9.5t39 -18t30 -28.5zM884 -252q17 23 34.5 47.5t37.5 55.5q-3 2 -5.5 2t-4.5 1q-50 19 -103.5 38
t-109.5 34t-115.5 24.5t-122.5 9.5q-50 0 -105.5 -8.5t-108.5 -27t-101.5 -46.5t-85.5 -67t-58.5 -89.5t-21.5 -112.5q0 -57 21 -100t57.5 -71.5t86 -43t106.5 -14.5q93 0 178 31t160 82.5t140.5 118t120.5 136.5zM1740 882q0 18 -11 35q-10 15 -25 24.5t-33 15t-37.5 8
t-37.5 2.5q-110 0 -202 -32.5t-172 -80.5q75 -42 153.5 -68.5t165.5 -26.5q23 0 49 5t51.5 15t47.5 24.5t37 33.5q4 8 9 21.5t5 23.5z" />
    <glyph glyph-name="H" unicode="H" horiz-adv-x="1949" 
d="M2845 1168q105 0 206.5 -32t189.5 -97l-13 -14q-87 65 -186 94.5t-202 29.5q-117 0 -231 -34.5t-218 -95t-195 -143.5t-163 -179q-51 -72 -97.5 -150.5t-86.5 -156.5h55v-28h-70q-9 -19 -19.5 -38.5t-19.5 -37.5q-22 -42 -50.5 -87.5t-65 -88.5t-80.5 -81.5t-96 -67.5
t-111.5 -46t-126.5 -17v14q58 7 110.5 38.5t98 77t84.5 99t72 103.5q21 34 41.5 66.5t43.5 65.5h-451l-12 -22q-34 -60 -65.5 -115t-60.5 -100q-50 -76 -119.5 -134t-152 -97.5t-173.5 -59.5t-183 -20q-101 0 -192.5 27t-160.5 83t-109.5 141.5t-40.5 201.5q0 83 23 161.5
t64.5 149.5t99 131.5t127 107t148 77.5t162.5 43q49 92 123 158.5t164.5 109t192.5 63t207 20.5q121 0 237.5 -24.5t218.5 -69.5q81 -36 157 -84t144 -108l-8 -16q-31 10 -60 15t-58 5q-69 0 -133 -25t-122.5 -68.5t-111.5 -102t-102 -125.5q-53 -72 -99 -146t-89 -149h453
q59 87 126 176.5t137 167.5q80 88 175.5 166.5t202.5 138t225.5 94.5t245.5 35zM1120 390h62q56 78 117 161.5t129 162.5q56 64 115.5 121t123 99t130.5 66.5t137 24.5q22 0 42 -2t40 -6q-119 95 -261 159q-48 20 -100.5 36.5t-107.5 28t-110 18t-108 6.5q-98 0 -193.5 -19
t-180 -59t-154.5 -101.5t-118 -145.5h13q109 0 215 -31.5t218 -88.5l-4 -9q-99 42 -197 65.5t-207 23.5h-30.5t-29.5 -2q-20 -45 -33.5 -92.5t-13.5 -99.5q0 -66 21.5 -124.5t61.5 -102.5t97.5 -69.5t129.5 -25.5q174 0 278 146l8 -5q-22 -39 -51.5 -72t-66 -57t-79 -37.5
t-89.5 -13.5q-81 0 -148.5 25t-116 71.5t-76 113t-27.5 149.5q0 46 10.5 93.5t27.5 89.5q-106 -20 -204.5 -77t-175 -141t-122.5 -191t-46 -225q0 -96 33 -172.5t89.5 -130t132 -82t159.5 -28.5q89 0 171.5 31.5t157.5 83t141 118t122 136.5q27 34 54 71t58 82h-44v28z" />
    <glyph glyph-name="I" unicode="I" horiz-adv-x="1080" 
d="M1642 1046q17 0 26 -5.5t9 -11.5q0 -8 -13.5 -17t-39.5 -14q-28 -6 -58 -8.5t-53 -3.5q-95 -52 -169.5 -122.5t-135 -150.5t-109.5 -165.5t-94 -168.5q-40 -76 -82.5 -150.5t-87.5 -137.5q-48 -62 -107 -117t-127.5 -96.5t-144 -66t-155.5 -24.5q-62 0 -123 22t-107 72
q-38 45 -57 101t-19 113t15.5 115t44.5 111.5t69.5 100.5t90.5 81.5t107.5 54.5t121.5 20q61 0 110 -14.5t101 -51.5l-5 -8q-39 17 -73.5 24.5t-71.5 7.5q-89 0 -176 -35.5t-156 -98t-111.5 -146t-42.5 -179.5q0 -51 16.5 -98.5t50.5 -86.5q18 -18 41 -33.5t48.5 -27
t52 -17.5t52.5 -6q62 0 121 28.5t112.5 71.5t100 93.5t83.5 94.5q29 34 66 86t76 109q58 84 129.5 181.5t152 192.5t168.5 179t181 141q-45 -2 -86.5 -5t-83.5 -9.5t-87 -17.5t-97 -27q-34 -12 -73 -29.5t-78.5 -41t-76 -52t-64 -62t-44.5 -72t-17 -80.5q0 -48 30.5 -80.5
t85.5 -34.5v-14q-31 0 -57.5 11.5t-46 32t-30.5 48.5t-11 62q0 70 33.5 128.5t86.5 104.5t118.5 78.5t129.5 49.5q83 22 164 26t165 4h74q29 17 66 29t71 12z" />
    <glyph glyph-name="J" unicode="J" horiz-adv-x="1507" 
d="M2071 1054q0 -9 -11 -19t-25.5 -19t-29.5 -16t-23 -10q-23 -11 -48 -20t-48 -18q-23 -8 -46 -18l1 1q-65 -53 -129.5 -128t-127 -163t-120.5 -183t-110 -187q-18 -32 -35 -64.5t-34 -66.5q81 -89 119 -197t38 -223v-9h-14q0 112 -38 219t-113 193l-33 -67h1
q-54 -134 -127 -255t-171 -213.5t-224 -147t-287 -54.5q-63 0 -123 11t-119 43q-51 28 -88 67t-62 86t-37 99.5t-12 108.5q0 152 94 285q51 73 120 125t149 85.5t168 49.5t177 16q41 0 80 -2.5t77 -8.5q23 37 55 77q51 63 111.5 116t126.5 98t136.5 83t142.5 70
q73 32 149 61t150 56l99 36l-1 -1q38 32 68 52t65 36v-1q4 2 15 7t24.5 10.5t27.5 9.5t23 4q19 0 19 -14zM982 -201q37 49 74 104.5t75 115.5l38 59l61 95q-49 43 -106.5 75t-129.5 55q-26 8 -51 14t-51 11q-30 -44 -54 -99q-17 -39 -26 -80.5t-9 -80.5q0 -26 1.5 -52.5
t10.5 -56.5l-14 -1q-19 58 -19 121q0 40 7 81.5t20 80.5q8 23 18 47t22 46q-53 6 -107 6q-85 0 -171 -19t-166 -55t-150 -88.5t-122 -119.5q-44 -62 -73 -136t-29 -155q0 -97 41 -178t131 -130q49 -26 102 -37.5t110 -11.5q93 0 173 33t149.5 88t130 124.5t114.5 143.5z
M1000 321q72 -23 131.5 -56t109.5 -78q62 98 126 197t131.5 192t138.5 178t146 154q-41 -20 -81.5 -38.5t-82.5 -37.5t-83.5 -38t-83.5 -39q-71 -35 -137.5 -73t-129.5 -81t-121.5 -92t-113.5 -106q-13 -15 -23.5 -28.5t-21.5 -28.5q26 -5 50 -11.5t46 -13.5h-1z" />
    <glyph glyph-name="K" unicode="K" horiz-adv-x="1735" 
d="M2572 1189q66 0 122.5 -28t102.5 -80l-7 -7q-38 29 -84 51t-97 22q-60 0 -116 -21t-111 -53q-83 -50 -161.5 -112.5t-157.5 -128.5l-74 -61q-68 -56 -137 -107t-142 -91.5t-150 -66.5t-160 -31q42 -15 69 -35t43.5 -44.5t23 -53t6.5 -60.5q0 -31 -4.5 -63.5t-9.5 -67.5
q-6 -39 -11.5 -79.5t-5.5 -82.5q0 -48 16.5 -83.5t46 -60.5t70.5 -39.5t89 -21.5v-10q-11 -2 -25 -3t-29 -1q-47 0 -91 11.5t-79 35.5t-56 61t-21 90q0 46 12.5 93t26.5 94q14 44 25 84.5t11 76.5q0 28 -8.5 52.5t-30 45.5t-57 36.5t-89.5 25.5q-18 -32 -33.5 -62t-32.5 -60
q-35 -65 -67.5 -123.5t-62.5 -105.5q-50 -77 -119.5 -135t-151.5 -97.5t-172.5 -59.5t-181.5 -20q-101 0 -193 27t-161.5 83t-110.5 141.5t-41 202.5q0 100 35.5 196.5t97 180t144.5 149t177 104.5q85 32 170 40q49 93 123.5 159t165 109t193 63t207.5 20q121 0 237 -24.5
t217 -69.5q40 -18 75.5 -36.5t68.5 -39.5t65 -45t66 -54l-8 -16q-19 6 -36.5 10t-35.5 7q-23 3 -45 3q-59 0 -113 -19t-103.5 -52.5t-95.5 -79.5t-88 -100q-51 -66 -95 -135.5t-84 -141.5h8q99 0 183 26t158.5 70t142 101.5t133.5 119.5l41 38q77 72 160.5 144.5
t181.5 128.5q54 31 111 48.5t120 17.5zM1052 209q33 42 69 94t74 109q63 95 135.5 196t151.5 189q48 52 98.5 97t104 78t110 51.5t116.5 18.5q20 0 39.5 -2t39.5 -6q-29 23 -56 42t-55 36.5t-58.5 33t-65.5 30.5q-48 20 -100.5 36.5t-107.5 28t-110.5 18t-108.5 6.5
q-98 0 -193 -19.5t-179.5 -59t-154.5 -101t-118 -145.5h13q109 0 215 -31.5t218 -88.5l-4 -9q-99 42 -197 65.5t-207 23.5h-30.5t-29.5 -2q-9 -20 -17 -40t-13 -40q-9 -31 -13 -57.5t-4 -54.5q0 -68 22 -126.5t62.5 -102t98 -68.5t127.5 -25q174 0 278 146l8 -5
q-22 -39 -51.5 -72t-66 -57t-79 -37.5t-89.5 -13.5q-77 0 -144 24.5t-117 70.5t-78.5 113t-28.5 151q0 65 19 129q8 32 19 54q-30 -6 -61 -15t-66 -23q-84 -37 -160 -97t-134 -138t-92.5 -169.5t-34.5 -191.5q0 -96 33 -172.5t90 -129.5t132 -81.5t159 -28.5q88 0 170 30
t156.5 80.5t141.5 117t124 140.5z" />
    <glyph glyph-name="L" unicode="L" horiz-adv-x="1379" 
d="M1764 1137q54 0 83 -26t29 -72q0 -50 -36.5 -117t-114.5 -145q-23 -23 -52 -48t-61.5 -50t-66.5 -49t-67 -45q-50 -32 -105 -61.5t-111.5 -55.5t-113.5 -47.5t-112 -37.5q-5 -8 -10 -17t-9 -17q-34 -62 -66.5 -116t-70.5 -100q-38 -45 -86 -84t-114 -68h1
q45 -32 95.5 -66t105.5 -63t113.5 -47.5t117.5 -18.5q67 0 129.5 29t123.5 72l7 -7q-26 -32 -55 -61.5t-62.5 -51.5t-71.5 -35t-82 -13q-51 0 -97 15.5t-89 40.5t-83.5 57.5t-80.5 65.5q-23 19 -46 38.5t-46 36.5q-38 -16 -82.5 -29t-91 -22t-93.5 -14t-90 -5q-69 0 -126 14
t-97.5 36.5t-62.5 50.5t-22 56q0 21 13 41.5t41.5 36t73 25.5t107.5 10q49 0 96 -10t91 -27t86 -40t82 -49l28 -18q43 35 84.5 77t79.5 88q31 36 59 74t55 74l9 12q-75 -12 -156 -12q-51 0 -103 7t-100 22.5t-90.5 39.5t-75.5 58q-36 39 -54 84.5t-18 103.5q0 69 29 135.5
t77 120.5q36 40 81 72.5t96 55t107 34.5t113 12q41 0 79.5 -4.5t81.5 -15.5l-2 -10q-48 6 -89 6q-58 0 -116 -11.5t-113 -35t-104 -58.5t-89 -83q-39 -47 -65.5 -103.5t-26.5 -122.5q0 -82 51 -148q31 -38 71.5 -64t87.5 -42.5t97.5 -24t100.5 -7.5q38 0 74.5 3.5t71.5 9.5
l37 52q25 34 54 74t60.5 82.5t65 85.5t68.5 84q30 36 69.5 78t85 84.5t96 82.5t103 70.5t105.5 49t104 18.5zM1711 791q75 75 110.5 139t35.5 109q0 38 -23.5 59t-68.5 21q-49 0 -99.5 -19.5t-100 -51t-96.5 -73t-89 -85.5t-77.5 -88t-61.5 -80q-65 -90 -113.5 -172.5
t-79.5 -142.5q109 32 215 81.5t204 111.5q50 32 116 81t128 110zM305 -79q82 0 154 23t138 73l-22 14q-37 23 -79 45t-86 38.5t-89.5 27t-90.5 10.5q-44 0 -77 -8t-55 -21.5t-33 -31.5t-11 -37q0 -24 15 -47.5t45.5 -42.5t78 -31t112.5 -12z" />
    <glyph glyph-name="M" unicode="M" horiz-adv-x="1988" 
d="M2897 1169q110 0 215 -29t202 -101l-13 -14q-88 66 -187.5 94.5t-205.5 28.5q-187 0 -368 -82q-109 -49 -199 -121t-161 -153q-42 -53 -84.5 -115.5t-82.5 -129.5t-77 -134t-68 -127q-34 -63 -85.5 -131t-118.5 -125t-149 -94.5t-177 -37.5v14q58 7 110.5 38.5t98 77
t84.5 99t72 103.5q49 77 100.5 155t107 153.5t116 147t126.5 135.5q83 81 177.5 148t201.5 115q17 8 34.5 15t36.5 13q-20 -5 -38.5 -10t-36.5 -10q-115 -35 -226 -91t-210 -127q-106 -80 -209 -184.5t-189 -219.5q-63 -88 -122 -187t-110 -202h-15q-18 78 -18 158
q0 59 9.5 120t27 120.5t41.5 115.5t53 106q34 57 75.5 107.5t89.5 90t101 67t111 39.5h-2q-73 0 -141.5 -31t-132.5 -83t-122.5 -121t-111.5 -146t-100.5 -156t-88.5 -152q-8 -16 -19 -33.5t-19 -33.5q-60 -104 -128.5 -185t-153 -136.5t-187.5 -85t-230 -29.5
q-100 0 -191.5 27t-161.5 82.5t-111.5 141t-41.5 203.5q0 100 35.5 196.5t97 180t144.5 149t177 104.5q85 32 170 40q49 92 123 158.5t164 109t191.5 63t205.5 20.5q59 0 119.5 -6.5t119 -19t114.5 -30t106 -38.5q75 -34 147.5 -79t136.5 -99h-1q2 -1 3 -2q2 -2 3 -2
q7 -7 8.5 -7t3.5 -2l-6 -17q-13 4 -22.5 5t-17.5 1q-60 0 -115.5 -31t-104 -78t-88.5 -104t-69 -109q-36 -66 -66 -138t-52.5 -142t-36.5 -136t-17 -120q48 95 101 182t111 166q88 121 188.5 223t212.5 184q100 73 213 129.5t229 91.5q33 11 69 19t70 15q56 11 117.5 18
t117.5 7zM1936 1025q20 0 40 -2t40 -6q-119 95 -261 159q-48 20 -101 36.5t-108 28t-110.5 18t-108.5 6.5q-98 0 -193 -19t-179.5 -59t-154 -101.5t-117.5 -145.5h13q109 0 215 -31.5t218 -88.5l-4 -9q-99 42 -197 65.5t-207 23.5h-30.5t-29.5 -2q-20 -45 -33.5 -92.5
t-13.5 -99.5q0 -66 22 -125t62.5 -102.5t97.5 -69t128 -25.5q174 0 278 146l8 -5q-22 -40 -51.5 -73t-66 -57t-78.5 -37t-90 -13q-77 0 -144 24.5t-117 70.5t-78.5 113t-28.5 151q0 46 10.5 93.5t27.5 89.5q-30 -6 -61 -15t-66 -23q-84 -37 -160 -97t-134 -138t-92.5 -169.5
t-34.5 -191.5q0 -97 33 -173t90 -129t132 -81t159 -28q90 0 173.5 32t158.5 84t140.5 118t119.5 133q28 36 59.5 80t63.5 90q49 70 103 145t113 146.5t123 136t132 113t140.5 77t149.5 28.5z" />
    <glyph glyph-name="N" unicode="N" horiz-adv-x="1925" 
d="M1462 250q21 71 46 148.5t57 154t71 148.5t87.5 132t108 104.5t132.5 66.5q-8 1 -15.5 1.5t-12.5 0.5q-76 0 -145.5 -30.5t-132.5 -82t-120 -120t-109 -145t-98.5 -156t-88.5 -153.5l-30 -52v1q-62 -109 -131.5 -193.5t-154 -142.5t-188 -88t-235.5 -30q-69 0 -137 13
t-128.5 41t-111 72t-84.5 107q-26 54 -36.5 103.5t-10.5 108.5q0 137 56.5 262t156.5 224q55 54 112.5 89.5t129.5 62.5q85 32 170 40q49 93 123.5 159t165 109t193 63t208.5 20q120 0 236 -24.5t217 -69.5q74 -33 146.5 -78.5t135.5 -97.5l19 -16l-7 -14q-16 4 -30 4
q-37 0 -72.5 -18.5t-61.5 -40.5q-61 -51 -106.5 -114t-81 -134.5t-64 -148t-55.5 -153.5q-20 -58 -40.5 -115.5t-44.5 -112t-52 -105.5t-63 -96q37 13 74 46.5t70.5 76t64 89t55.5 86.5l30 47q67 103 141 207.5t158 201t178 180.5t201 146t228 98t258 36q104 0 207 -30
t194 -99l-10 -12q-88 66 -188 94.5t-203 28.5q-133 0 -247 -34.5t-212 -95.5t-181 -143.5t-154.5 -178.5t-133 -201.5t-115.5 -210.5q-17 -32 -42.5 -70.5t-59 -77.5t-74 -76t-86 -66t-96 -47.5t-103.5 -20.5q17 27 33.5 64t31.5 79t29 88t28 91zM1936 1025q20 0 40.5 -2
t40.5 -6q-119 95 -261 159q-96 41 -206 65t-219 24q-99 0 -194 -19t-180 -59t-155 -101t-118 -146h46t33 -2q101 -10 190 -40t177 -78l-4 -9q-47 20 -91 36.5t-88 28.5t-89.5 18.5t-96.5 6.5q-46 0 -66 -0.5t-33 -2.5q-20 -45 -33.5 -92.5t-13.5 -99.5q0 -66 21 -124.5
t61 -102.5t97.5 -69.5t130.5 -25.5q174 0 278 146l8 -5q-22 -39 -51.5 -72t-66 -57t-79 -37.5t-89.5 -13.5q-79 0 -146 25t-116.5 71.5t-77.5 113t-28 149.5q0 46 10.5 93.5t27.5 89.5q-30 -6 -61 -15t-66 -23q-63 -27 -116 -62t-103 -83q-44 -44 -81.5 -96.5t-64.5 -111
t-42 -121.5t-15 -129q0 -48 8.5 -90t28.5 -90h-1q28 -57 68.5 -99t90 -69.5t105 -40.5t114.5 -13q93 0 177 30.5t158 81.5t138.5 117t119.5 136q29 36 59.5 79t63.5 91q49 69 103 144t113.5 147t123 136.5t132 113t140.5 77t148 28.5z" />
    <glyph glyph-name="O" unicode="O" horiz-adv-x="1372" 
d="M1576 979q0 -27 -8.5 -53t-23 -49t-33 -43.5t-37.5 -37.5q-2 -46 -15 -98q-13 -53 -37 -114t-56 -125q-57 -108 -134 -215.5t-170 -199.5q-59 -59 -125.5 -113t-141 -95t-156 -66t-168.5 -25q-86 0 -148 21.5t-102.5 60t-60 92t-19.5 118.5t18.5 139t52.5 152t82.5 157.5
t109.5 155.5q-81 22 -142.5 52t-109.5 65q-82 62 -119.5 135.5t-37.5 146.5q0 69 24 127.5t67 100.5t102 66t129 24q83 0 156.5 -30t132.5 -82t101 -121.5t62 -148.5q60 39 126 72t135 57t138.5 37.5t137.5 13.5q42 0 89 -7.5t87 -27.5t66 -54.5t28 -87.5zM1441 702
q11 42 14 78q-46 -37 -109 -70t-141.5 -57.5t-173 -39.5t-204.5 -17q-45 -54 -83 -109t-72 -116q-32 -59 -56 -120.5t-33 -133.5l-10 1q-1 11 -1.5 21.5t-0.5 21.5q0 63 16 118.5t41 113.5q25 57 53.5 106t64.5 97q-19 0 -38.5 1t-36.5 3q-52 3 -99.5 8.5t-89.5 14.5
q-56 -78 -100 -158.5t-74.5 -158.5t-47 -151.5t-16.5 -137.5q0 -56 13.5 -102.5t41.5 -80t71.5 -52t104.5 -18.5q80 0 158 24t150.5 64.5t139.5 94t126 112.5q94 94 170.5 199.5t130.5 208.5q32 62 55 121.5t36 113.5zM164 773q47 -36 109.5 -65t143.5 -50q70 87 153.5 164
t178.5 140q-23 71 -63.5 135.5t-96 114t-125 79t-150.5 29.5q-60 0 -114 -19t-95.5 -55t-66 -88t-24.5 -118q0 -69 35.5 -138.5t114.5 -128.5zM1465 881q7 -25 9 -59q16 15 31 33t26.5 37.5t18.5 41t7 44.5q0 46 -22 76.5t-58 49t-81 26t-90 7.5q-68 0 -137.5 -16
t-137.5 -43.5t-132 -64.5t-120 -79q5 -32 7 -63.5t2 -66.5h-10q-3 30 -7 59t-11 57q-75 -59 -141.5 -130.5t-124.5 -149.5q42 -8 85.5 -13t91.5 -9q42 -3 89 -3l53 64q43 48 101.5 100t125.5 95t140 70.5t145 27.5q51 0 87 -21t53 -70zM842 615q109 3 202 19t170 42
t137.5 59t104.5 70q0 40 -10 71q-14 40 -44 57.5t-72 17.5q-40 0 -82.5 -15t-85.5 -40t-85.5 -57t-81 -67t-72.5 -70t-61 -65q-5 -6 -10 -10.5t-10 -11.5z" />
    <glyph glyph-name="P" unicode="P" horiz-adv-x="1828" 
d="M2156 1146q75 0 140.5 -29.5t121.5 -77.5l-2 -16q-58 48 -120 76t-136 29q-64 0 -129 -20.5t-118 -49.5q81 -54 119.5 -126.5t38.5 -148.5q0 -66 -29 -128t-86 -110.5t-141.5 -78t-195.5 -29.5q-54 0 -103 16t-94 39q-29 -49 -56 -97t-53 -98q-30 -56 -61.5 -112.5
t-65.5 -113.5q-59 -98 -128.5 -173.5t-153 -126.5t-183.5 -77.5t-220 -26.5q-102 0 -193.5 28t-161 84t-110.5 139.5t-41 193.5q0 91 26 177t72.5 161.5t111 138.5t141.5 108.5t164.5 70.5t179.5 25q14 0 28 -0.5t29 -1.5q66 87 154 157t190 118.5t214.5 74.5t228.5 26
q115 0 203 -28t154 -67q58 33 127 53.5t138 20.5zM1320 643q17 -55 58 -94q42 61 85.5 119t94.5 115q69 77 138 143.5t142 114.5l19 12q-56 36 -136.5 63t-186.5 27q-105 0 -206 -26t-193.5 -73t-175 -113t-151.5 -146q85 -14 162.5 -41.5t159.5 -70.5l-4 -9
q-45 19 -87 33.5t-84 25.5t-84.5 18t-89.5 10q-26 -35 -49 -73t-41 -79t-28.5 -85t-10.5 -90q0 -53 17 -100.5t49.5 -83t79.5 -56.5t107 -21q38 0 73.5 7.5t69.5 27.5l5 -8q-36 -28 -76 -39.5t-93 -11.5q-61 0 -112.5 21t-88.5 59t-57.5 90.5t-20.5 114.5q0 87 31.5 167.5
t82.5 160.5h-5q-85 0 -167.5 -23.5t-157 -66t-137 -102.5t-108.5 -132.5t-72 -156t-26 -173.5q0 -89 32 -163t89 -127.5t136 -83.5t174 -30q73 0 140.5 22t129 59t116.5 85t103 100q43 46 82 95.5t75 101.5t70 105t68 107q26 42 51.5 81.5t53.5 81.5q-46 43 -75 97v-1
q-16 26 -26 51t-10 43q0 12 6.5 27.5t23.5 15.5q10 -1 17 -11t7 -33q0 -20 2 -38.5t9 -40.5v1zM1618 459q87 0 156.5 30.5t118 79.5t75 111.5t26.5 127.5q0 64 -27.5 124t-87.5 106l-20 -13q-69 -48 -136 -119.5t-133 -157.5q-45 -61 -84 -120.5t-74 -119.5q38 -19 82 -33
t104 -16z" />
    <glyph glyph-name="Q" unicode="Q" horiz-adv-x="1600" 
d="M1561 -62q55 0 105.5 -16.5t89 -48.5t61.5 -78.5t23 -106.5t-26 -117t-80 -101q-57 -45 -126 -64.5t-140 -19.5q-103 0 -190 27.5t-166.5 75.5t-155 113.5t-153.5 141.5l-47 46h1q-28 27 -54 52.5t-54 50.5q-36 -4 -71 -5.5t-71 -1.5q-91 0 -185 13.5t-179 46.5
q-16 6 -41 18t-49 28.5t-41 37t-17 44.5q0 28 23.5 44t55.5 23.5t65 9.5t53 2q97 0 185 -26t174 -77q49 -29 90 -59.5t80 -64.5q190 38 353.5 137t296.5 251q55 62 99 127t75 128.5t47.5 123t16.5 110.5q0 39 -11 71t-33.5 55.5t-57.5 36.5t-84 13q-55 0 -108 -13t-106 -36
q10 -23 15 -46t5 -52q0 -21 -2 -42t-7 -41q84 49 152 49q50 0 71.5 -25t21.5 -66q0 -33 -14.5 -75.5t-40.5 -89.5t-62 -96.5t-79 -97.5q-51 -55 -112 -105t-126 -88.5t-133 -61t-134 -22.5q-65 0 -99.5 35t-34.5 102q0 69 25.5 137t61.5 135q34 63 80 126t101 121t118 108
t132 86l5 4q-17 34 -44 58t-60.5 39t-71.5 22t-76 7q-66 0 -131.5 -14t-128.5 -39t-121 -59.5t-108 -75.5q-42 -33 -88.5 -82.5t-85.5 -106.5t-65 -118.5t-26 -119.5q0 -46 27 -76t77 -30q60 0 120 26t112.5 67.5t95.5 94t70 106.5l8 -3q-14 -63 -50.5 -123t-88 -107.5
t-115 -76t-132.5 -28.5t-106 36.5t-37 105.5q0 63 25.5 127.5t65 123.5t88 110.5t93.5 88.5q111 90 242.5 142.5t279.5 52.5q42 0 82.5 -6.5t77 -21t67 -38.5t50.5 -59q54 23 110 36.5t114 13.5q71 0 122.5 -17.5t85 -49t49.5 -75t16 -95.5q0 -54 -19.5 -117.5t-55 -130
t-85 -133t-109.5 -127.5q-68 -65 -148.5 -121t-168 -100t-180.5 -76t-186 -49q23 -20 45.5 -41.5t45.5 -43.5l23 -21l59 -57q59 -58 122.5 -117t134.5 -106t151 -77t173 -30q58 0 115.5 16.5t108.5 54.5q42 32 70 81.5t28 103.5q0 50 -24 88.5t-62 65t-85.5 40.5t-95.5 14
q-78 0 -146 -17.5t-140 -54.5l-5 8q66 61 138 92.5t161 31.5zM1372 779q-36 0 -77 -15.5t-83 -41.5q-29 -91 -86 -164.5t-130 -136.5q-13 -11 -41.5 -33t-59.5 -44t-58 -38.5t-36 -16.5q-15 0 -15 15q0 14 19 44q10 16 24 35.5t32 42.5q25 30 55.5 64t65 68.5t71.5 67.5
t76 62l8 6q14 32 24.5 71t10.5 75q0 17 -2.5 33t-9.5 33l-4 -2v1q-68 -35 -130 -84t-116 -106t-99 -119.5t-78 -123.5q-16 -30 -31 -61.5t-27 -64.5t-19 -67.5t-7 -70.5q0 -24 6.5 -45.5t20 -37.5t33.5 -25.5t48 -9.5q63 0 127.5 24.5t127 65.5t120 94t107.5 110
q39 47 72.5 96t58.5 94.5t39 84.5t14 67q0 25 -11.5 39t-39.5 14zM499 -95q32 0 64.5 2t64.5 5q-26 23 -53.5 44.5t-57.5 42.5q-81 57 -167 94.5t-185 37.5q-13 0 -38.5 -1.5t-50.5 -7.5t-43.5 -18t-18.5 -32q0 -18 16 -34.5t38 -31t45 -25.5t37 -17q80 -30 172 -44.5
t177 -14.5zM970 448q42 47 81 99t69 111q-34 -27 -68 -58.5t-65.5 -63.5t-59.5 -63t-50 -58q-19 -23 -33 -42.5t-23 -34.5q-3 -5 -8.5 -13t-5.5 -15q16 8 38.5 25t45.5 37t44 40.5t35 35.5z" />
    <glyph glyph-name="R" unicode="R" horiz-adv-x="1927" 
d="M1733 -408q-51 7 -97.5 29.5t-82 56.5t-57 77t-21.5 92q0 40 9 77t24 71.5t33.5 66.5t36.5 62q14 23 27.5 47.5t24.5 49t18 48t7 44.5q0 35 -11.5 59t-31 41.5t-45 30t-52.5 24.5q-15 7 -28 13t-28 14q-38 -64 -71 -126t-65 -122q-26 -48 -51.5 -95t-48.5 -87
q-63 -109 -135 -195t-159.5 -145.5t-192.5 -91t-234 -31.5q-110 0 -202.5 28.5t-160.5 85.5t-106 141.5t-38 196.5q0 135 56.5 258.5t155.5 220.5q102 101 231.5 147.5t274.5 46.5q4 0 8 -0.5t8 -0.5h13q32 51 67.5 92.5t83.5 85.5q144 129 317 191t365 62q115 0 202.5 -23
t153.5 -62q64 35 129.5 54.5t134.5 19.5q84 -1 147.5 -29.5t119.5 -75.5l-10 -11q-54 46 -116.5 72t-134.5 26q-68 0 -130 -18.5t-119 -50.5q81 -54 120.5 -126.5t39.5 -149.5q0 -66 -29 -128t-86 -110.5t-141.5 -78t-195.5 -29.5q-21 0 -43 3q41 -32 68.5 -79.5
t27.5 -104.5q0 -49 -21 -99t-47 -102q-14 -28 -28.5 -58t-26 -62.5t-18.5 -66t-7 -67.5q0 -32 10 -63t31 -57.5t53 -45.5t76 -28zM1350 721q0 -51 17 -95.5t56 -82.5q27 39 56.5 79t60 79.5t62 77.5t61.5 71q56 60 115 112.5t121 90.5q-56 36 -137 58t-187 22
q-90 0 -177.5 -19t-170 -54.5t-158.5 -84.5t-142 -109q-38 -35 -69 -70.5t-57 -75.5q45 -6 86 -16t80.5 -24t79 -32t82.5 -40l-4 -9q-45 19 -87.5 33.5t-84 25.5t-84.5 18t-90 10q-8 -13 -14.5 -24.5t-11.5 -21.5q-26 -53 -43 -104.5t-17 -111.5q0 -27 3 -50.5t11 -50.5v1
q8 -25 18 -43t26 -38q38 -40 88 -60t107 -20q38 0 73.5 7.5t69.5 27.5l5 -8q-36 -28 -76 -39.5t-93 -11.5q-57 0 -108.5 18.5t-94.5 60.5q-20 23 -32.5 43.5t-23.5 48.5q-11 29 -15.5 55.5t-4.5 58.5q0 68 16 123.5t45 115.5q2 5 5.5 9.5t5.5 9.5q0 3 2 5q-131 -2 -253 -51
t-219 -145q-43 -43 -80 -94.5t-64 -108.5t-42.5 -119.5t-15.5 -127.5q0 -91 29.5 -166.5t83.5 -130t130.5 -84.5t170.5 -30q84 0 160.5 25.5t145 69t128.5 99.5t113 118q60 70 124 164t133 200q71 110 148 222q-17 14 -37 37t-37.5 50t-29.5 55t-12 52q0 6 1.5 13t5 14
t9 11.5t13.5 4.5q9 0 17 -11t8 -33zM2036 804q0 66 -28 127t-89 108q-72 -45 -136 -107t-123 -136q-53 -66 -100 -138.5t-91 -146.5q87 -49 190 -49q86 0 156 29.5t119 77.5t75.5 109.5t26.5 125.5z" />
    <glyph glyph-name="S" unicode="S" horiz-adv-x="1882" 
d="M2131 1122q38 0 57 -22.5t19 -51.5q0 -57 -30 -113t-77 -109.5t-104 -103.5t-112 -96l-44 -37q-64 -164 -140 -305t-170 -248q-90 -99 -199.5 -167.5t-231 -111.5t-252 -62.5t-263.5 -19.5q-87 0 -159.5 16.5t-132.5 41.5q-116 -31 -232.5 -53t-236.5 -29v29
q112 5 222.5 21t219.5 44q-63 32 -112.5 75.5t-82.5 94.5q-35 54 -55 119.5t-20 145.5q0 125 55 250q53 119 142 209.5t200 151.5t236 92t250 31q51 0 105 -8t104.5 -25.5t95 -44t78 -64t53 -86.5t19.5 -110q0 -49 -18.5 -95t-50 -85.5t-73.5 -71.5t-89 -52l-5 9
q36 24 66.5 55.5t52.5 69t34.5 79.5t12.5 86q0 81 -36.5 140.5t-95.5 98t-134 57.5t-153 19q-117 0 -233.5 -32t-220.5 -92t-187.5 -146t-134.5 -194q-26 -60 -40 -121t-14 -121q0 -78 18.5 -139.5t52.5 -114.5t87.5 -97.5t122.5 -75.5q173 47 338 115t323 150
q121 63 235.5 131.5t220.5 140t201 143t178 140.5q22 43 44 97.5t44 111.5q25 65 50.5 126.5t55 109t65.5 76t81 28.5zM1273 -49q152 117 276.5 265t217.5 313q-80 -65 -172 -133t-193 -135.5t-211 -133t-227 -125.5q-156 -81 -316 -147t-325 -113q56 -21 121 -34.5
t140 -13.5q98 0 190 19t178.5 53t166.5 81t154 104zM1885 652q29 24 63 53t68 61t65 66t54.5 70t38 72.5t14.5 73.5q0 22 -14.5 38.5t-42.5 16.5q-40 0 -74 -34.5t-63 -87t-52.5 -115t-42.5 -118.5q-11 -32 -21.5 -63.5t-21.5 -57.5z" />
    <glyph glyph-name="T" unicode="T" horiz-adv-x="1374" 
d="M2777 1184q-47 -44 -95.5 -81t-101 -64.5t-111.5 -43t-126 -15.5q-78 0 -150 21.5t-142 49.5h1q-34 7 -71 7q-57 0 -111 -17.5t-105 -48t-98.5 -72t-90.5 -89.5q-48 -55 -92.5 -116.5t-84 -124.5t-74.5 -123.5t-65 -113.5l-33 -59v1q-65 -113 -133.5 -202.5
t-153.5 -151.5t-192 -94.5t-248 -32.5q-101 0 -192.5 27t-161 83t-110.5 141.5t-41 201.5q0 100 35.5 196.5t97 180t144.5 149t177 104.5q85 32 170 40q49 92 123 158.5t164 109t191.5 62.5t206.5 20q104 0 196.5 -13t178 -35t166.5 -50t162 -58q34 -13 69.5 -26t71.5 -26
q60 -22 111 -34t107 -12q61 0 115 11.5t103.5 32.5t95.5 50.5t91 64.5zM1468 766q58 66 119 123t124.5 99.5t130 67t135.5 24.5h1h3h-1l-65 28q-71 30 -140.5 58.5t-141 50t-146 35t-155.5 13.5q-98 0 -194 -19t-181 -59t-156 -101t-119 -146h13q110 0 216 -31.5t218 -88.5
l-4 -9q-97 40 -197 64.5t-207 24.5h-30.5t-29.5 -2q-21 -45 -33 -91.5t-12 -100.5q0 -72 23 -131t65.5 -101.5t102.5 -66t134 -23.5q81 0 146.5 39.5t114.5 106.5l8 -4q-22 -40 -52 -73t-66 -57t-78.5 -37.5t-89.5 -13.5q-77 0 -144 24.5t-117 70.5t-78.5 113t-28.5 151
q0 46 10.5 93.5t27.5 89.5q-30 -6 -61 -15t-66 -23q-84 -37 -160 -97t-134 -138t-92.5 -169.5t-34.5 -191.5q0 -96 33 -172.5t90 -130t132 -82t159 -28.5q82 0 159 27t146.5 71.5t131 101.5t113.5 117q18 21 39 48.5t43.5 58t45.5 62.5t44 63q63 91 135.5 189.5t150.5 187.5
z" />
    <glyph glyph-name="U" unicode="U" horiz-adv-x="1863" 
d="M1592 956q0 -72 -26.5 -146.5t-67 -146.5t-89.5 -140.5t-95 -129.5q-21 -28 -40 -54t-36 -50q-35 -49 -64 -92.5t-51 -79.5t-34 -64t-12 -47t16.5 -26t36.5 -7q46 0 92 18.5t90 48.5t84.5 67.5t76.5 74.5q55 57 111 122t114 134q52 63 110.5 130t120 132.5t125 125
t126.5 107.5q69 49 147.5 92.5t161.5 75.5t169.5 50.5t172.5 18.5q107 0 209 -30.5t192 -97.5l-2 -16q-89 67 -192 95.5t-206 28.5q-89 0 -173 -19.5t-163 -54t-152 -80.5t-140 -100q-66 -56 -136 -133.5t-136.5 -164.5t-125.5 -178t-103.5 -174.5t-70.5 -152.5t-26 -113
q0 -47 27 -47q9 0 22 3t32 14l1 -15q-32 -20 -54 -26t-39 -6q-45 0 -66 20.5t-21 49.5q0 63 33 143t88 167t125 176.5t144 172t146 153.5t131 121q-58 -45 -119.5 -104.5t-121.5 -123.5t-116.5 -129t-104.5 -122q-64 -76 -119 -140.5t-107 -118.5q-38 -38 -80 -77t-89 -70
t-100 -50.5t-112 -19.5q-22 0 -42 4.5t-35.5 16t-24.5 30t-9 47.5q0 49 22.5 102t56.5 104.5t74 100.5t76 90q11 13 21.5 25t19.5 23l57 67q45 52 88.5 106.5t78.5 108t56.5 106t21.5 100.5q0 74 -38.5 127t-100.5 87.5t-139.5 50.5t-156.5 16q-128 0 -260.5 -38.5
t-256 -106.5t-232.5 -161t-190 -202t-128 -229.5t-47 -243.5q0 -58 19.5 -105.5t54 -81t83 -52t105.5 -18.5q69 0 138 19.5t134 55t123.5 84.5t104 108t76 125.5t41.5 136.5l10 -1v-12q0 -3 0.5 -5.5t0.5 -4.5q0 -74 -24.5 -144t-67.5 -132.5t-100.5 -114t-124.5 -89
t-139 -58.5t-143 -21q-66 0 -123.5 21t-99.5 60.5t-66.5 97t-24.5 131.5q0 132 44 260t122 242.5t184 212t231 168t262.5 110.5t278.5 40q99 0 185.5 -23t151 -68t101.5 -112t37 -156z" />
    <glyph glyph-name="V" unicode="V" horiz-adv-x="1839" 
d="M945 -99q7 0 18 5t22 13q-7 -1 -15.5 -2t-15.5 -3t-12 -5t-5 -6q0 -2 8 -2zM1132 1263q-128 0 -260.5 -38.5t-256 -106.5t-232.5 -161t-190 -202t-128 -229.5t-47 -243.5q0 -58 19.5 -105.5t54 -81t83 -52t105.5 -18.5q69 0 138 19.5t134 55t123.5 84.5t104 108t76 125.5
t41.5 136.5l10 -1v-12q0 -3 0.5 -5.5t0.5 -4.5q0 -74 -24.5 -144t-67.5 -132.5t-100.5 -114t-124.5 -89t-139 -58.5t-143 -21q-66 0 -123.5 21t-99.5 60.5t-66.5 97t-24.5 131.5q0 132 44 260t122 242.5t184 212t231 168t262.5 110.5t278.5 40q112 0 205.5 -31t161 -88
t105 -136t37.5 -175q0 -62 -15.5 -125.5t-41 -126t-58.5 -122.5t-67 -115q-43 -69 -91.5 -135.5t-97.5 -125t-96.5 -107t-89.5 -82.5q51 9 99 31t94.5 52.5t90.5 69t87 81.5q81 81 149.5 162t136.5 165q25 31 49.5 61.5t50.5 60.5q57 67 120 132.5t132.5 125t144.5 110.5
t156 88q86 37 185 60t194 23q107 0 208.5 -30t192.5 -97l-10 -16q-88 65 -187.5 94.5t-203.5 29.5q-94 0 -189 -23.5t-182 -61.5q-125 -59 -226.5 -144t-171.5 -176q-45 -59 -86 -121t-80 -125l-70 -108t-73 -106q-59 -79 -129.5 -144t-151 -112.5t-171.5 -75t-191 -31.5
q-26 -18 -50.5 -28.5t-41.5 -10.5q-8 0 -17.5 4.5t-9.5 15.5q0 12 11 19.5t26 11.5t30.5 5.5t23.5 1.5q33 30 77.5 84t93 121.5t97.5 143.5t91 150q25 45 55.5 107t57.5 131.5t45 142.5t18 140q0 86 -29 144t-83 93.5t-130 50.5t-170 15z" />
    <glyph glyph-name="W" unicode="W" horiz-adv-x="2263" 
d="M901 -178q14 0 39.5 19.5t56.5 51.5q-6 -3 -14 -5l-9 -3q-8 -3 -21 -8.5t-26.5 -13t-23 -17t-9.5 -19.5q0 -5 7 -5zM1371 -100q21 0 53 21q-8 -1 -19 -2.5t-20.5 -3.5t-16 -5.5t-6.5 -7.5q0 -2 3.5 -2h5.5zM1117 1315q99 0 190.5 -28.5t162 -84t113 -139t42.5 -192.5
q0 -82 -24.5 -168t-64 -170.5t-91 -165t-105 -152t-105 -131.5t-92.5 -103q67 37 141 92.5t146 118t139 125.5t121 117q60 58 112 117t90.5 116t61 112.5t22.5 107.5q0 5 -1 13.5t-2 19.5l18 2q5 -18 7 -35.5t2 -36.5q0 -47 -13 -99.5t-34.5 -107t-49 -109.5t-57 -105.5
t-58 -96t-51.5 -80.5q-15 -22 -43 -60.5t-63 -82.5t-74 -88t-75 -77q52 8 100.5 28.5t95 50.5t91 67.5t87.5 80.5q83 81 152.5 165.5t135.5 167.5q65 82 136 165t151 159t170.5 142t195.5 115q86 37 185.5 60t194.5 23q106 0 208.5 -31t193.5 -98l-13 -14
q-87 65 -186.5 94.5t-203.5 29.5q-96 0 -189.5 -23t-181.5 -62q-108 -48 -192.5 -115t-152.5 -144t-123.5 -160t-104.5 -163q-30 -50 -63.5 -101.5t-65.5 -97.5q-58 -80 -129 -145.5t-153 -112.5t-174 -74t-192 -30q-24 -18 -45 -28.5t-38 -10.5q-9 0 -19 4t-10 16
t11.5 19.5t27.5 11.5t32.5 5.5t25.5 1.5h9q25 21 53 49.5t55 59.5t53 63.5t47.5 61.5t38.5 52t26 37q16 24 36 55.5t41.5 67.5t43.5 74.5t42 76.5q-28 -45 -61.5 -87.5t-73.5 -81.5q-60 -59 -140 -123t-168 -123.5t-178 -110t-169 -81.5q-15 -15 -39.5 -37t-52 -41.5
t-54.5 -33.5t-48 -14q-11 0 -18.5 6t-7.5 17q0 14 9.5 26t24 22t30.5 17t28 12q14 5 29.5 10.5t30.5 12.5q38 43 91 113.5t110 157.5t113.5 185.5t101.5 199t72.5 197.5t27.5 181q0 90 -33 148.5t-89.5 92.5t-131 47.5t-157.5 13.5q-128 0 -260.5 -38.5t-256 -106.5
t-232.5 -161t-190 -202t-128 -229.5t-47 -243.5q0 -58 19.5 -105.5t54 -81t83 -52t105.5 -18.5q69 0 138 19.5t134 55t123.5 84.5t104 108t76 125.5t41.5 136.5l10 -1v-12q0 -3 0.5 -5.5t0.5 -4.5q0 -74 -24.5 -144t-67.5 -132.5t-100.5 -114t-124.5 -89t-139 -58.5
t-143 -21q-66 0 -123.5 21t-99.5 60.5t-66.5 97t-24.5 131.5q0 132 44 260t122 242.5t184 212t231 168t262.5 110.5t278.5 40z" />
    <glyph glyph-name="X" unicode="X" horiz-adv-x="1766" 
d="M2671 1168q107 0 209.5 -30.5t193.5 -98.5l-13 -14q-88 65 -186 93.5t-202 28.5q-113 0 -224 -32t-215 -88.5t-198 -133.5t-174.5 -166.5t-144 -188t-105.5 -197.5q-31 -78 -50 -160.5t-19 -154.5q0 -64 14 -123.5t44 -111t76 -94t111 -73.5l-2 -16q-83 38 -142.5 87.5
t-97.5 108t-56 124.5t-18 137v12v9v9t1 13q-71 -94 -158 -176.5t-187.5 -143.5t-214 -96.5t-236.5 -35.5q-93 0 -168 23t-130 67t-89.5 106.5t-47.5 142.5q-39 6 -77 20q-48 18 -80.5 45.5t-52.5 62.5t-28.5 75t-8.5 84q0 90 26.5 180.5t71 176t102.5 163.5t122 144
q76 79 166 146t190.5 116.5t210 77.5t226.5 28q156 0 266.5 -45t180.5 -122t102.5 -178.5t32.5 -215.5q0 -35 -3 -71.5t-8 -71.5q85 114 196.5 215.5t240 177.5t269.5 120.5t284 44.5zM1416 197q32 48 60 98t52 104q52 112 81 222.5t29 211.5q0 91 -27 170t-86.5 137.5
t-153.5 91.5t-228 33q-110 0 -216.5 -26.5t-207 -74t-192.5 -112.5t-173 -143q-57 -56 -116.5 -129t-108.5 -155.5t-80 -170.5t-31 -174q0 -37 8.5 -71t27.5 -63t49.5 -51.5t75.5 -35.5q16 -5 29.5 -7.5t27.5 -4.5q-2 11 -1.5 21.5t0.5 23.5q0 98 28.5 196t80.5 187.5
t124 167.5t159 135t186.5 89.5t206.5 32.5q45 0 85 -4t79 -12t78.5 -20t81.5 -29l-3 -10q-70 21 -130.5 31.5t-126.5 10.5q-101 0 -199.5 -29t-187.5 -81.5t-164.5 -126t-131 -162t-86.5 -189t-31 -208.5v-27h11.5t11.5 1q102 5 199.5 48.5t177.5 115t136 165.5t77 199
l10 -1v-12q0 -3 0.5 -5.5t0.5 -4.5q0 -69 -25 -137.5t-68.5 -130t-101.5 -114.5t-124.5 -92t-138 -61.5t-141.5 -23.5h-19q11 -66 39 -122.5t73 -98t107.5 -65t142.5 -23.5q75 0 150 22t146.5 59.5t138 88t126.5 108t111 118t92 119.5z" />
    <glyph glyph-name="Y" unicode="Y" horiz-adv-x="1883" 
d="M2186 930q73 54 150 97.5t158.5 75t167.5 48.5t178 17q106 0 207.5 -30.5t191.5 -96.5l-10 -16q-88 65 -187 94.5t-203 29.5q-87 0 -171.5 -18t-165 -50.5t-155 -78t-140.5 -100.5q-46 -40 -92.5 -88t-91 -100.5t-86 -107t-77.5 -107.5q-27 -41 -56.5 -88t-59 -95.5
t-58 -96t-53.5 -89.5q-48 -82 -97.5 -165.5t-101.5 -162.5q42 -29 80 -58t75 -61l-10 -18q-39 35 -78.5 65.5t-77.5 56.5q-26 -38 -55 -77.5t-58 -74.5q-51 -59 -109 -110t-124 -88.5t-140.5 -59.5t-158.5 -22q-40 0 -79 6.5t-73 20.5t-61 37.5t-44 56.5q-21 40 -21 86
q0 42 14 81.5t36 74.5q28 45 71 85.5t98 71.5t122 49.5t143 19.5h12q97 0 180.5 -23t158.5 -61l131 181q89 123 177.5 243.5t183.5 239.5q80 100 161 191t156 158q-75 -65 -157 -155t-167 -188q-7 -8 -13.5 -15t-12.5 -15q-31 -35 -59.5 -68t-56.5 -64q-43 -48 -99.5 -106.5
t-120.5 -113t-132 -98.5t-133 -62q-32 -8 -65 -8q-22 0 -43 5t-37 16t-25.5 30t-9.5 47q0 48 22 100t56 103.5t74 100t76 89.5q12 14 23 26.5t21 24.5l47 55q39 45 80 95t74.5 102t55 105t21.5 105q0 51 -20.5 92t-54 73t-78 55t-92 37.5t-96 21.5t-90.5 7
q-106 0 -211 -28.5t-205 -78t-191.5 -115t-170.5 -139.5q-56 -56 -115.5 -129t-108.5 -155.5t-80.5 -170t-31.5 -171.5q0 -58 19.5 -102.5t54.5 -74.5t83 -45.5t105 -15.5q65 0 125.5 13.5t122.5 44.5q66 33 127 81.5t110 108.5t83.5 131t48.5 150l10 -1v-12q0 -3 0.5 -5.5
t0.5 -4.5q0 -75 -30.5 -149.5t-80.5 -140.5t-113.5 -120t-129.5 -88q-31 -16 -60 -27.5t-58.5 -19t-60.5 -11t-66 -3.5q-66 0 -123.5 18t-100 54t-66.5 90.5t-24 128.5q0 90 26.5 180.5t71.5 176t103 163.5t121 143q80 82 172 150t194.5 116.5t215 75.5t233.5 27
q79 0 160.5 -22.5t148.5 -67t109.5 -112t42.5 -157.5q0 -71 -25 -142.5t-64 -141.5t-86 -136t-91 -125q-19 -25 -36.5 -48.5t-32.5 -45.5q-5 -7 -10.5 -15.5t-13.5 -18.5q-19 -26 -42.5 -60t-44.5 -68.5t-35 -67t-14 -55.5q0 -20 13.5 -25.5t33.5 -5.5q11 0 24 2t21 4
q64 16 128.5 57.5t126 95t117 112.5t102.5 110q24 27 48.5 54t48.5 55l45 51q50 57 99.5 113.5t98 107t94.5 93.5t88 74zM1123 -415q44 48 85 102.5t78 105.5q10 14 18.5 27t19.5 26q-73 37 -153.5 58t-175.5 21h-11q-72 -1 -136 -19.5t-117.5 -48.5t-95.5 -69t-70 -81
q-20 -32 -33 -69.5t-13 -75.5q0 -42 18 -78q15 -29 37 -49t50 -32t59 -17.5t64 -5.5q56 0 107.5 16.5t98 44t89 65t81.5 79.5z" />
    <glyph glyph-name="Z" unicode="Z" horiz-adv-x="1276" 
d="M1822 1060q22 0 22 -15q0 -18 -47 -57q-20 -17 -44 -35t-47.5 -35t-44 -31t-32.5 -22q-36 -24 -78 -50.5t-92 -52.5l-55 -78q-46 -66 -93 -129t-101 -112.5t-117.5 -80t-141.5 -30.5h-15.5h-8.5h-5.5h-6.5q66 -56 93.5 -121.5t27.5 -138.5q0 -44 -8 -87.5t-21.5 -84
t-31.5 -78t-37 -70.5q-56 -90 -134.5 -165t-172.5 -129t-198.5 -84.5t-211.5 -30.5q-44 0 -91 7t-90.5 23.5t-79.5 45t-58 72.5q-25 51 -25 109q0 52 21 105.5t51 99.5q44 61 112 118t158 101t199.5 71t236.5 27q69 0 136 -10.5t133 -40.5q2 14 3 27t1 26q0 62 -20 117
t-62 99q-55 11 -87.5 25.5t-46.5 27.5q-5 4 -9.5 10t-4.5 13q0 8 5.5 11t13.5 3q18 0 42 -8.5t48.5 -20.5t46.5 -25.5t35 -22.5q5 -1 10.5 -1h10.5q49 0 97.5 25.5t96.5 68t96.5 98t98.5 115.5l40 46q-109 -44 -226 -70t-240 -26q-108 0 -196 23.5t-149.5 61.5t-95 86
t-33.5 98q0 52 37 97.5t98 79.5t139.5 53.5t160.5 19.5q85 0 162 -22t145 -62.5t126.5 -99t107.5 -131.5l-8 -5q-52 59 -111.5 109t-127 86t-142.5 56.5t-159 20.5q-75 0 -148 -16.5t-130 -45t-92 -66.5t-35 -82q0 -45 33.5 -88.5t93.5 -77.5t143.5 -55t184.5 -21
q59 0 121.5 8.5t125 23.5t124.5 35t119 43q24 28 56 62.5t69 70.5t78.5 70t84.5 60.5t85 42.5t82 16zM735 -351q69 85 119 189t67 213q-62 29 -128.5 40.5t-137.5 11.5q-128 0 -236 -25.5t-195.5 -68t-153 -98.5t-107.5 -117q-28 -42 -47.5 -91t-19.5 -103q0 -57 22 -101
q19 -39 52 -65t73 -42t84 -23t85 -7q78 0 151 22t139.5 60.5t125 91t107.5 113.5zM1787 1003q39 32 39 40q0 1 -4 1q-46 0 -94.5 -25.5t-93.5 -63t-84 -81t-67 -79.5q71 40 137 86q8 5 27.5 18.5t43.5 31t49.5 36.5t46.5 36zM724 407q10 -9 34.5 -20.5t57.5 -20.5
q-23 17 -49.5 30.5t-46.5 15.5l5 -5h-1z" />
    <glyph glyph-name="bracketleft" unicode="[" horiz-adv-x="540" 
d="M752 868h-142l-498 -938h131v-19h-212l520 976h201v-19z" />
    <glyph glyph-name="backslash" unicode="\" horiz-adv-x="786" 
d="M610 -100l-60 -19l-315 983l62 19z" />
    <glyph glyph-name="bracketright" unicode="]" horiz-adv-x="577" 
d="M-70 -112h142l498 938h-131v19h212l-520 -976h-201v19z" />
    <glyph glyph-name="asciicircum" unicode="^" horiz-adv-x="485" 
d="M509 600q5 -8 5 -17q0 -14 -12 -25.5t-28 -11.5q-9 0 -16 4.5t-9 15.5q-4 16 -8.5 36.5t-11.5 45.5l-11 41l-14 -17.5t-14 -15.5q-26 -29 -46.5 -54t-44.5 -57q-12 -15 -27 -15q-14 0 -27 12t-13 28q0 15 15 27q23 16 48 33t48 32.5t42 29t31 21.5h-1q1 1 3 2q4 2 6 2
q4 0 7 -6v1l25 -36q11 -17 25 -36t28 -40z" />
    <glyph glyph-name="underscore" unicode="_" horiz-adv-x="683" 
d="M498 2q0 -11 -12.5 -19t-35.5 -8h-7q-36 3 -67 5t-66 3t-78 2t-102 3l-111 3v18l237 9q57 2 99.5 3.5t90.5 4.5h8q23 0 33 -7t11 -17z" />
    <glyph glyph-name="grave" unicode="`" horiz-adv-x="385" 
d="M307 703q22 -29 41 -52t42 -49l53 -63l-10 -10l-80 55l-98 67q-15 12 -15 27q0 14 11.5 26.5t28.5 12.5q8 0 15 -3t12 -11z" />
    <glyph glyph-name="a" unicode="a" horiz-adv-x="545" 
d="M462 148q20 23 41.5 49t41.5 51l13 -15q-20 -25 -40.5 -51.5t-40.5 -46.5q-26 -29 -52.5 -54.5t-52.5 -44.5t-51 -30t-47 -11q-40 0 -55 17t-15 44q0 21 9 47.5t22 53.5q-29 -32 -57 -60.5t-56 -50.5q-31 -24 -57.5 -38.5t-49.5 -14.5q-35 0 -50 24.5t-15 59.5
q0 25 8 56.5t21 64t29.5 64.5t34.5 59q28 37 62.5 70.5t71.5 59t76 40.5t76 15q30 0 46.5 -14.5t16.5 -43.5q0 -14 -3 -32l60 88h128l-115 -152q-75 -99 -145 -201q-8 -11 -18 -26.5t-19 -32t-15.5 -32t-6.5 -27.5q0 -17 21 -17q19 0 40.5 10t45 28t48 42t49.5 52zM111 61
q32 26 66 61t67 76q28 32 52 69t43 73q12 23 23 51t11 57q0 12 -6 24t-21 12q-22 0 -51.5 -23t-60.5 -57t-61 -73t-53 -71q-26 -36 -48 -71.5t-38 -66.5t-25.5 -55.5t-9.5 -39.5q0 -14 16 -14q18 0 42.5 12.5t53.5 35.5z" />
    <glyph glyph-name="b" unicode="b" horiz-adv-x="567" 
d="M532 619q-27 -15 -56 -31.5t-58 -32.5t-56 -31t-49 -28q-2 -6 -15 -26t-31 -49t-40 -64t-44.5 -72t-43.5 -74.5t-37.5 -70.5t-26.5 -59t-10 -41q0 -27 23 -27q32 0 63.5 16t52.5 32q20 15 44 36.5t50 47.5v11q0 53 22.5 103.5t49.5 94.5q24 38 53 72.5t58 57.5
q8 7 16.5 11.5t14.5 4.5q17 0 17 -22q0 -19 -7 -40.5t-17.5 -43.5t-23 -43t-24.5 -39q-30 -45 -66.5 -89.5t-72.5 -82.5q2 -5 4 -9.5t4 -6.5q11 -14 38 -14q29 0 60.5 15t59.5 38q25 20 46.5 42.5t36.5 42.5l13 -15q-16 -21 -37.5 -43.5t-47.5 -42.5q-30 -23 -64.5 -39.5
t-65.5 -16.5q-14 0 -28.5 5t-25.5 17l-7 11q-22 -21 -46 -41.5t-48 -40.5q-21 -16 -55 -32.5t-71 -16.5t-57.5 20t-20.5 58q0 27 11.5 63t31 79t46.5 91t58 98q-26 -27 -49 -56t-48 -60l-20 -25l-10 -13v1q-4 -5 -10.5 -13t-10.5 -13l-13 15l44 55q42 51 82 98.5t72 73.5
q71 106 143 191t141 145t132.5 92t117.5 32q15 0 32.5 -2.5t32.5 -9t25 -19t10 -33.5q0 -28 -20 -55t-49 -51t-61 -44t-55 -33q-24 -14 -52 -29.5t-55 -29.5zM631 693q18 10 47.5 27.5t58 40.5t49 49t20.5 52q0 22 -20.5 32t-41.5 10q-48 0 -103 -35.5t-110 -90.5
t-106 -121.5t-91 -129.5q33 19 70.5 40t76 42.5t76.5 42.5t74 41z" />
    <glyph glyph-name="c" unicode="c" horiz-adv-x="408" 
d="M285 368q23 29 51 50.5t53 23.5q3 9 3 16q0 14 -12.5 20t-27.5 6q-23 0 -53 -22.5t-61.5 -56.5t-61.5 -72.5t-53 -69.5t-43 -61.5t-35 -58t-23.5 -50.5t-8.5 -39q0 -11 6.5 -18.5t16 -12.5t21 -7.5t21.5 -2.5q45 0 90.5 22t88.5 56t81.5 76t69.5 81l13 -15
q-31 -39 -70 -81.5t-83.5 -77.5t-93.5 -58t-98 -23q-21 0 -42.5 6t-39 18.5t-29 32.5t-11.5 48q0 48 23.5 105.5t61.5 110.5q28 38 63.5 73t74 61.5t79 42t78.5 15.5q12 0 25.5 -1.5t25 -6.5t19 -15t7.5 -27q0 -12 -5 -25q-8 -18 -28.5 -45.5t-43.5 -53.5q-6 -7 -16 -17.5
t-22 -21t-23.5 -18t-19.5 -7.5q-9 0 -9 13q0 22 13.5 45t27.5 42z" />
    <glyph glyph-name="d" unicode="d" horiz-adv-x="585" 
d="M209 71q0 22 6 41.5t16 39.5q-28 -31 -55.5 -58t-53.5 -48q-31 -25 -58 -39t-49 -14q-35 0 -50 25t-15 61q0 56 27 122t69 124q28 36 61.5 69t70.5 58t75 39.5t75 14.5q27 0 45.5 -14.5t18.5 -43.5q0 -11 -1.5 -21.5t-3.5 -21.5q23 34 51.5 75.5t70.5 101.5t100 143
t141 200h129l-130 -171q-60 -78 -99.5 -130t-67 -87.5t-45.5 -60t-34 -46.5l-54 -74q-36 -49 -69 -94.5t-58 -84.5t-39.5 -70t-14.5 -51q0 -26 7.5 -34.5t17.5 -8.5q35 0 76 25.5t81 62t75.5 77t59.5 70.5l13 -15q-25 -31 -61 -72t-77.5 -78.5t-85.5 -63.5t-85 -26
q-35 0 -57.5 20.5t-22.5 57.5zM111 61q42 34 88.5 85.5t86.5 107.5q14 20 29 43.5t27.5 48.5t21 51t9.5 51q0 12 -6.5 24t-20.5 12q-18 0 -45.5 -21t-57.5 -52.5t-60 -68.5t-54 -70q-27 -38 -51 -75.5t-42 -70.5t-28.5 -60t-10.5 -42q0 -7 5.5 -9t12.5 -2q18 0 42.5 12.5
t53.5 35.5z" />
    <glyph glyph-name="e" unicode="e" horiz-adv-x="408" 
d="M13 54q0 -22 20.5 -31.5t44.5 -9.5q45 0 90.5 22t88.5 56t81.5 76t69.5 81l13 -15q-31 -39 -70 -81.5t-83.5 -77.5t-93.5 -58t-98 -23q-21 0 -42.5 6t-39 18.5t-29 32.5t-11.5 48q0 55 28.5 118.5t76.5 122.5q28 34 61 64t68.5 53t72 36.5t70.5 13.5q12 0 26 -1.5
t26.5 -6t20.5 -14.5t8 -26q0 -20 -12 -41t-29.5 -40.5t-37 -36t-33.5 -26.5q-45 -32 -96.5 -54.5t-98.5 -23.5q-20 -28 -36.5 -55t-29 -50.5t-19.5 -43.5t-7 -33zM361 484q-28 0 -65.5 -28.5t-72.5 -68.5q-31 -35 -58 -69t-47 -62q42 5 87.5 25.5t84.5 48.5q13 10 30.5 25
t33.5 32.5t27.5 36t11.5 33.5q0 14 -10 20.5t-22 6.5z" />
    <glyph glyph-name="f" unicode="f" horiz-adv-x="417" 
d="M93 123q21 -11 44.5 -17t47.5 -6q54 0 113 34.5t119 113.5l13 -15q-62 -81 -124 -116.5t-121 -35.5q-44 0 -87 19q20 -32 29 -67t9 -71q0 -57 -20 -112t-53.5 -104t-76.5 -90.5t-88 -71.5t-89 -47t-80 -17q-45 0 -45 55q0 27 21 76t55.5 111t78.5 133t90 144l78 124
q-2 2 -3.5 3t-2.5 3v-1q-5 5 -8.5 9.5t-3.5 11.5q0 2 2 8.5t13 6.5q5 0 10.5 -3t10.5 -8q20 32 37 58t32.5 50t30.5 47t33 49q-32 -33 -62.5 -67t-59.5 -69l-10 -13v1q-4 -5 -10.5 -13t-10.5 -13l-13 15l20 25q23 29 48.5 58.5t50.5 56.5t48 49t41 37q71 106 141.5 191.5
t139 145.5t132.5 92t121 32q15 0 32.5 -2.5t32.5 -9t25 -19t10 -33.5q0 -29 -20.5 -56t-49.5 -51t-60.5 -43.5t-54.5 -32.5l-155 -84q-50 -26 -97 -51t-86 -48l2 1zM-171 -302q-41 -62 -68 -103.5t-29 -54.5q34 1 75.5 17.5t84 45.5t83 68.5t72 86t50.5 98.5t19 106
q0 35 -10 70t-29 65q-66 -118 -131.5 -220.5t-116.5 -178.5zM641 693q18 10 47.5 27.5t58 40.5t49 49t20.5 52q0 22 -20.5 32t-41.5 10q-32 0 -68 -16.5t-73.5 -44t-75.5 -65t-73.5 -79t-68.5 -85.5t-60 -86q42 23 89.5 49t98.5 53q30 17 60.5 32.5t57.5 30.5z" />
    <glyph glyph-name="g" unicode="g" horiz-adv-x="548" 
d="M548 248l13 -15l-18 -23q-5 -8 -12 -16t-13 -15q-34 -39 -76 -77.5t-88 -73t-95 -63.5t-97 -49q-31 -47 -66 -96.5t-72.5 -96.5t-77.5 -89t-80 -73q-34 -26 -77 -47t-87 -21q-36 0 -59 21t-23 59q0 31 14.5 61t32.5 53q20 24 48.5 50.5t66.5 49.5q28 17 59 32t62 27.5
t61 23t56 19.5l45 14q18 29 35.5 57.5t32.5 53.5l60 97q-19 -19 -36.5 -35.5t-34.5 -29.5q-32 -25 -60 -39t-49 -14q-17 0 -29 7t-19.5 18.5t-11 25t-3.5 27.5q0 59 25.5 123.5t63.5 121.5q28 38 62 72.5t71.5 60.5t76.5 41.5t77 15.5q29 0 47 -13.5t18 -45.5q0 -23 -4 -42
q17 26 32 50t32 49h129l-97 -127q-15 -21 -38.5 -53.5t-52 -72.5t-60.5 -85t-63 -90q-13 -18 -27 -39.5t-30 -44.5q-8 -14 -12.5 -20.5t-15.5 -21.5q91 41 173.5 104.5t145.5 137.5zM110 61q22 18 47 41.5t49.5 51.5t48.5 58.5t44 61.5q12 18 25 38.5t24 43t18 46t7 47.5
q0 11 -6 23t-20 12q-22 0 -49.5 -20.5t-57.5 -52.5t-60 -70t-55 -74q-27 -38 -50.5 -74.5t-41 -68.5t-27 -57.5t-9.5 -40.5q0 -8 5.5 -10.5t13.5 -2.5q18 0 42 13t52 35zM-158 -403q26 27 52.5 59.5t52.5 68.5t51.5 74t49.5 76q-4 -2 -7.5 -2.5t-6.5 -1.5l-9 -2h2
q-60 -19 -117.5 -41t-115.5 -58q-36 -22 -64 -47t-47 -48q-17 -22 -30 -49t-13 -56q0 -26 16.5 -41.5t42.5 -15.5q19 0 38.5 8t38 20.5t35.5 27.5t31 29v-1z" />
    <glyph glyph-name="h" unicode="h" horiz-adv-x="585" 
d="M303 496q-15 -23 -30.5 -48.5t-34.5 -56.5l-56 -92q23 25 49 51.5t54 50.5q17 15 39.5 32.5t47.5 33.5t51 26.5t50 10.5q23 0 39.5 -14t16.5 -40q0 -20 -9 -44.5t-23.5 -53t-33 -59t-38.5 -61.5l-24 -37q-18 -27 -34.5 -53t-29.5 -48.5t-21.5 -40t-8.5 -27.5t12 -10
q32 0 74 30t85 75q25 26 53 60t54 67l13 -15q-26 -32 -53.5 -65.5t-52.5 -59.5q-45 -48 -91.5 -80.5t-86.5 -32.5q-53 0 -75 17t-22 46q0 22 10.5 48t27 54t38 57.5t44.5 58.5l39 49q17 21 35 44.5t32.5 44.5t24 37.5t9.5 24.5t-10 8q-19 0 -42.5 -10.5t-47 -26t-45 -32.5
t-36.5 -30q-23 -20 -44.5 -42t-41.5 -43t-37.5 -40.5t-32.5 -35.5v1q-33 -63 -69 -122t-71 -108h-130l23 28q46 62 91.5 129t90.5 135q12 18 20.5 30.5t16.5 24.5t17.5 25.5t21.5 32.5q-24 -26 -47.5 -55t-47.5 -59l-20 -25l-10 -13v1q-4 -5 -10.5 -13t-10.5 -13l-13 15
l44 55q42 51 82 98.5t72 73.5q74 106 145 191t138 145t130 92t121 32q15 0 32.5 -2.5t32.5 -9t25 -19t10 -33.5q0 -29 -20.5 -56t-49.5 -51t-60.5 -43.5t-54.5 -32.5l-155 -84q-50 -26 -97 -51t-86 -48zM631 693q18 10 47.5 27.5t58 40.5t49 49t20.5 52q0 22 -20.5 32
t-41.5 10q-32 0 -68 -16.5t-73.5 -44t-75.5 -65t-73.5 -79t-68.5 -85.5t-60 -86q42 23 89.5 49t98.5 53q30 17 60.5 32.5t57.5 30.5z" />
    <glyph glyph-name="i" unicode="i" horiz-adv-x="336" 
d="M351 700q21 0 35.5 -13t14.5 -33t-14.5 -33.5t-35.5 -13.5t-35.5 13.5t-14.5 33.5t14.5 33t35.5 13zM347 504l-45 -59q-17 -23 -35 -45.5t-35 -45.5q-38 -51 -74.5 -101.5t-71.5 -101.5q-8 -11 -18 -26.5t-19 -31.5t-15.5 -31.5t-6.5 -26.5q0 -9 6 -14t24 -5q19 0 42 10
t48.5 28t52 42.5t52.5 52.5q20 22 42 47.5t42 51.5l13 -15q-20 -24 -41 -49.5t-41 -47.5q-28 -30 -56.5 -56t-56 -44.5t-53.5 -29.5t-48 -11q-47 0 -63.5 17t-16.5 43q0 29 14.5 64.5t31.5 66.5q11 21 22.5 41t26 44.5t34 55.5t47.5 73q-21 -25 -42.5 -51.5t-42.5 -52.5
l-59 -73l-13 15q31 38 64.5 79t64.5 77.5t57 65.5t41 44h128z" />
    <glyph glyph-name="j" unicode="j" horiz-adv-x="288" 
d="M-394 -373q48 51 101 117.5t105 140.5q-48 -16 -86.5 -29t-71.5 -26t-61.5 -27t-56.5 -31q-38 -23 -65 -47t-46 -48q-17 -22 -31 -48.5t-14 -56.5q1 -30 17.5 -43t36.5 -13q26 0 49.5 10.5t45 26.5t40.5 35.5t37 38.5zM351 700q21 0 35.5 -13t14.5 -33t-14.5 -33.5
t-35.5 -13.5t-35.5 13.5t-14.5 33.5t14.5 33t35.5 13zM92 148q-33 -50 -62 -93t-67 -94q72 38 152.5 107t172.5 180l13 -15q-98 -120 -193.5 -195t-171.5 -113q-42 -56 -84 -109t-79.5 -98t-69.5 -79.5t-54 -53.5q-20 -16 -43.5 -32.5t-49.5 -29.5t-53.5 -21.5t-54.5 -8.5
q-44 0 -66 21.5t-22 59.5q0 31 15 61.5t34 53.5q20 24 48.5 50.5t66.5 49.5q31 19 62.5 34t68 29.5t79.5 29t97 32.5q48 69 93.5 139.5t93.5 143.5q20 31 34.5 54t28 45t29 46t38.5 58q-22 -26 -42.5 -52t-41.5 -52l-59 -73l-13 15q31 38 64.5 79t64.5 77.5t57 65.5t41 44
h129q-65 -78 -118.5 -154.5t-104.5 -152.5z" />
    <glyph glyph-name="k" unicode="k" horiz-adv-x="585" 
d="M169 275q26 29 59 63t66 63q16 14 39 32t48 33.5t50.5 26.5t48.5 11q45 0 63.5 -15t18.5 -38q0 -19 -12.5 -40.5t-32.5 -39.5t-45.5 -30t-50.5 -12q-4 0 -3 -0.5t-3 0.5q4 -8 4 -20q0 -18 -5 -37.5t-13.5 -40t-19 -41t-20.5 -38.5l-22 -38q-15 -27 -27 -49t-12 -36
q0 -13 19 -13q33 0 73 29t84 74q26 28 53.5 61t55.5 68l13 -15q-29 -37 -56.5 -70.5t-50.5 -57.5q-47 -48 -91 -79t-86 -31q-65 0 -90 17t-25 44q1 29 24 66t53 75l24 30q29 35 51.5 66t23.5 48q-11 7 -21.5 18t-19.5 26l11 11q12 -20 26.5 -28t26.5 -8q18 0 36.5 11.5
t32.5 28t23 34.5t9 32q0 18 -21 18t-45 -10.5t-47.5 -25.5t-44.5 -32t-37 -31q-24 -22 -49 -47t-48 -50t-42.5 -47t-33.5 -38l-5 -5v2q-31 -57 -63 -109.5t-63 -95.5h-130l23 28q46 62 91.5 129t90.5 135q12 18 20.5 30.5t16.5 24.5t17.5 25.5t21.5 32.5q-24 -26 -47.5 -55
t-47.5 -59l-20 -25l-10 -13v1q-4 -5 -10.5 -13t-10.5 -13l-13 15l44 55q42 51 82 98.5t72 73.5q74 106 145 191t138 145t130 92t121 32q15 0 32.5 -2.5t32.5 -9t25 -19t10 -33.5q0 -29 -20.5 -56t-49.5 -51t-60.5 -43.5t-54.5 -32.5l-155 -84q-50 -26 -97 -51t-86 -48l2 1
q-17 -26 -38.5 -62t-47.5 -79zM631 693q18 10 47.5 27.5t58 40.5t49 49t20.5 52q0 22 -20.5 32t-41.5 10q-32 0 -68 -16.5t-73.5 -44t-75.5 -65t-73.5 -79t-68.5 -85.5t-60 -86q42 23 89.5 49t98.5 53q30 17 60.5 32.5t57.5 30.5z" />
    <glyph glyph-name="l" unicode="l" horiz-adv-x="407" 
d="M11 91q0 34 12 72t31 77.5t42.5 78t46.5 72.5q-44 -50 -87 -105l-20 -25l-10 -13v1q-4 -5 -10.5 -13t-10.5 -13l-13 15l44 55q42 51 82 98.5t72 73.5q74 106 145 191t138 145t130 92t121 32q15 0 32.5 -2.5t32.5 -9t25 -19t10 -33.5q0 -29 -20.5 -56t-49.5 -51
t-60.5 -43.5t-54.5 -32.5q-78 -44 -158.5 -89t-151.5 -86l2 1l-43 -63q-20 -28 -44 -62.5t-48 -71t-47 -73.5t-40.5 -69.5t-28 -60t-10.5 -44.5q0 -29 12 -38t23 -9q35 0 77.5 25.5t84.5 62t79 77t61 70.5l13 -15q-25 -31 -62.5 -72t-81 -78.5t-89 -63.5t-86.5 -26
q-37 0 -63.5 22.5t-26.5 75.5zM631 693q18 10 47.5 27.5t58 40.5t49 49t20.5 52q0 22 -20.5 32t-41.5 10q-48 0 -100.5 -34t-104 -87.5t-99.5 -119t-88 -128.5l47 27h-1q56 32 115 65.5t118 65.5z" />
    <glyph glyph-name="m" unicode="m" horiz-adv-x="914" 
d="M927 233q-23 -29 -48 -59.5t-49 -56.5q-23 -24 -47.5 -46.5t-48.5 -39t-47 -26.5t-43 -10q-54 0 -76 17t-22 46q0 19 9.5 43t25 51t35.5 55t41 56q14 20 29 38.5t29 36.5q19 23 35.5 44.5t29 39.5t20 31.5t7.5 22.5q0 8 -11 8q-19 0 -42.5 -10.5t-47 -26t-45 -32.5
t-36.5 -30q-24 -23 -49 -48t-48 -49.5t-42.5 -46t-33.5 -37.5l-8 -10q-19 -31 -38.5 -61t-36.5 -56t-31.5 -47.5t-23.5 -34.5h-129q26 33 68 90.5t99 137.5q24 34 48.5 69t46 66.5t38.5 57.5t26 43q2 4 4 10t2 10q0 5 -6 5q-16 0 -39 -11t-47 -27t-46 -32.5t-35 -28.5
q-24 -22 -49 -47t-47.5 -49.5t-42.5 -47t-34 -38.5l-6 -7v1q-20 -31 -39.5 -61.5t-37 -57t-32 -48t-24.5 -35.5h-128q13 18 32.5 44t42.5 57.5t48.5 66.5t50.5 70t49 69.5t44.5 64.5t36 54.5t23.5 39.5q2 4 4 8.5t2 8.5q0 6 -7 6q-9 0 -21.5 -10t-29 -28t-35.5 -42t-41 -52
l-98 -129l-13 15l97 126q22 28 42.5 53.5t39 45t35 30.5t30.5 11q26 0 38.5 -14.5t12.5 -39.5q0 -23 -19.5 -66t-48.5 -97q25 27 54.5 57t60.5 57q14 12 36.5 29.5t48 34t50.5 28t44 11.5q28 0 41.5 -14.5t13.5 -39.5q0 -24 -18.5 -65.5t-47.5 -95.5q25 27 54 56t59 56
q16 15 38.5 32.5t48 33.5t51.5 26.5t50 10.5q23 0 39 -14t16 -40q0 -21 -10 -48.5t-27.5 -60t-40.5 -69t-49 -76.5q-19 -28 -36 -54.5t-30 -49t-20.5 -40t-7.5 -27.5q0 -9 11 -9q17 0 37 9t42 24.5t44.5 36t44.5 44.5q23 26 49 57.5t49 60.5z" />
    <glyph glyph-name="n" unicode="n" horiz-adv-x="634" 
d="M647 233l-26 -33q-17 -22 -35 -43t-35 -40q-50 -53 -97 -87.5t-90 -34.5q-55 0 -76.5 18t-21.5 49q0 20 10 44t26 51t37 56t44 58l45 57l38 47.5t31.5 42t21.5 34.5t8 24q0 8 -11 8q-19 0 -42.5 -10.5t-47 -26t-45 -32.5t-36.5 -30q-24 -22 -49 -47t-47.5 -49.5
t-42.5 -47t-34 -38.5l-6 -7v1q-20 -32 -39.5 -62t-37 -56.5t-32 -48t-24.5 -35.5h-126l10 16l50 69l127 174q21 30 42 61t40 59t33.5 50.5t21.5 34.5q2 4 4.5 10t2.5 10q0 5 -7 5q-15 0 -45.5 -33.5t-70.5 -85.5l-110 -142l-13 15q12 15 25 32t24 32l60 76q20 26 38.5 49
t35.5 40t32.5 27t29.5 10q24 0 37.5 -14.5t13.5 -39.5q0 -22 -19 -65.5t-48 -96.5q24 26 54 56.5t60 56.5q16 15 38.5 32.5t47.5 33.5t51 26.5t50 10.5q23 0 39.5 -14t16.5 -40q0 -20 -9 -46t-24 -55t-34.5 -61t-40.5 -63q-7 -10 -13.5 -19.5t-12.5 -19.5q-17 -26 -33 -50.5
t-28 -45t-19 -37t-7 -26.5q0 -11 11 -11q35 0 78.5 32t89.5 83q23 26 49 56.5t49 60.5z" />
    <glyph glyph-name="o" unicode="o" horiz-adv-x="410" 
d="M253 95q-16 0 -26.5 11.5t-14.5 25.5q-22 -24 -45 -45.5t-46 -40.5q-30 -24 -58.5 -38.5t-48.5 -14.5q-35 0 -50 24t-15 54q0 57 25 123.5t68 126.5q28 39 62 72.5t71.5 58.5t76.5 39.5t77 14.5q28 0 44.5 -13.5t16.5 -45.5q0 -27 -11 -56t-23 -55q-15 -29 -31 -55
t-32 -49q-30 -41 -65 -83q1 -13 7 -24t18 -11q17 0 39.5 15.5t44.5 37t41.5 44.5t31.5 37l13 -15q-11 -15 -31 -38t-44 -45.5t-49 -38.5t-46 -16zM110 61q22 19 48 43.5t51 52.5q0 30 10.5 60.5t28.5 58.5q18 26 43 47t52 25q12 25 20.5 49.5t8.5 48.5q0 13 -6 25.5
t-21 12.5q-21 0 -48 -20.5t-56.5 -51.5t-58.5 -68.5t-53 -70.5q-28 -38 -52 -75t-41.5 -70t-27.5 -59.5t-10 -43.5q0 -7 5 -9.5t11 -2.5q18 0 43.5 13.5t52.5 34.5z" />
    <glyph glyph-name="p" unicode="p" horiz-adv-x="625" 
d="M137 151q-5 -5 -13 -16.5t-11 -16.5l-39 -62q-49 -78 -122 -196.5t-173 -294.5q-5 -8 -11 -18t-10 -18h-126l167 255q87 132 166.5 252.5t140 215t96.5 155t36 72.5q0 5 -7 5q-15 0 -45.5 -33.5t-70.5 -85.5l-110 -142l-13 15q12 15 25 32t24 32l60 76q20 26 38.5 49
t35.5 40t32.5 27t29.5 10q24 0 37.5 -14.5t13.5 -39.5q0 -14 -7.5 -35.5t-20 -47t-27.5 -52.5t-30 -52q27 32 56.5 63.5t57.5 56.5q16 15 38.5 33t47.5 33.5t51 26.5t50 11q23 0 39.5 -14.5t16.5 -39.5q0 -23 -11 -51.5t-29 -62.5t-42 -71.5t-51 -77.5q-31 -47 -55 -85.5
t-24 -58.5q0 -13 10 -13q18 0 39.5 10t43.5 26.5t45 38.5t44 45q28 30 52 60.5t43 54.5l13 -15q-18 -24 -42 -53.5t-50 -58.5q-23 -25 -47.5 -48t-49 -41t-48 -28.5t-45.5 -10.5q-56 0 -77.5 19t-21.5 49q0 18 8.5 40t22.5 46t32.5 49.5t38.5 51.5l56 71q19 23 36 44.5
t30 39.5t20.5 32t7.5 23t-11 9q-19 0 -42.5 -10.5t-47 -26t-45 -32.5t-36.5 -30q-18 -16 -37 -36t-37.5 -41t-36.5 -42.5t-33 -40.5q-14 -17 -25 -31t-21 -25v-1z" />
    <glyph glyph-name="q" unicode="q" horiz-adv-x="541" 
d="M392 108q40 29 77 64.5t72 75.5l13 -15q-16 -19 -35 -38t-39 -37.5t-39.5 -35.5t-37.5 -31q-47 -35 -101 -63t-108 -47l-1 -1q29 -57 29 -114q0 -48 -16.5 -94.5t-43 -87.5t-59 -76.5t-65 -60.5t-61.5 -39.5t-47 -14.5q-19 0 -33.5 10.5t-14.5 35.5q0 41 28.5 106
t73.5 142.5t100.5 161.5t110.5 163q-36 -38 -72 -66q-31 -25 -59.5 -39t-50.5 -14q-34 0 -48 24t-14 54q0 29 7.5 60.5t19.5 64t28.5 63.5t34.5 58q28 37 62.5 71.5t72 60.5t76.5 41.5t77 15.5q30 0 46.5 -14t16.5 -47q0 -12 -3 -30q11 15 20 29t16 25l24 35h127l-19 -27
q-17 -23 -48 -63.5t-71 -94.5q-51 -69 -107 -145.5t-117 -164.5q98 38 178 99zM112 61q36 29 78 75t79 93q11 14 21 29.5t22 33.5l9 15q18 29 35.5 65.5t17.5 72.5q0 14 -6.5 26.5t-20.5 12.5q-21 0 -48 -20.5t-57 -52t-60 -70t-55 -73.5q-27 -38 -50.5 -74t-41 -68
t-27 -58.5t-9.5 -43.5q0 -11 16 -11q18 0 43 12.5t54 35.5zM-70 -489q14 0 40 13t56 37t61 56.5t56.5 72t41.5 84t16 91.5q0 23 -4.5 48t-15.5 49q-21 -31 -44 -66t-45 -69t-41.5 -64t-33.5 -52q-47 -75 -72 -123t-25 -66q0 -11 10 -11z" />
    <glyph glyph-name="r" unicode="r" horiz-adv-x="402" 
d="M415 233q-28 -35 -56 -68.5t-54 -61.5q-46 -48 -90 -79t-83 -31q-17 0 -34.5 3t-32 10.5t-24 21t-9.5 34.5q0 23 9 47t23 47.5t30.5 45.5t32.5 42l30 39q6 9 15 20t17 21q14 17 28 36t25.5 37.5t19 35t7.5 30.5t-14 27t-32 17l-130 -170q-27 -36 -49 -64.5t-39 -49.5
l-13 15l211 273q-16 7 -24 20.5t-8 28.5q0 19 15 36.5t50 22.5v-13q0 -13 3.5 -27.5t8.5 -27.5t11 -24t12 -17q44 -38 44 -91q0 -25 -8 -51.5t-21 -52.5t-28 -50.5t-28 -44.5q-47 -71 -77 -120.5t-31 -72.5q0 -14 14 -14q32 0 73.5 31.5t82.5 73.5q27 29 54.5 62t55.5 68z
" />
    <glyph glyph-name="s" unicode="s" horiz-adv-x="435" 
d="M15 -9q-20 0 -41 5.5t-38.5 17t-28.5 29.5t-11 44q0 20 8 39.5t22 35t33.5 25t42.5 9.5q37 0 63 -23t26 -71h-18q0 38 -21.5 57t-49.5 19q-17 0 -33 -7.5t-28 -20t-19 -29t-7 -34.5q0 -31 26 -54t74 -23q41 0 72.5 22t55.5 59t41 85t27.5 100t15.5 104.5t6 98.5
q-16 -17 -31.5 -35t-31.5 -35l-165 -186l-13 15q48 57 86 99.5t70 77.5l87 97q2 25 12 50.5t24.5 46t33 33.5t36.5 13q14 0 14 -16q0 -9 -5.5 -19.5t-13.5 -22.5t-18 -25t-20 -25q-8 -10 -14.5 -19t-12.5 -17q1 -24 4.5 -55t8.5 -62q6 -38 11 -79.5t5 -79.5
q0 -53 -24.5 -104.5t-65.5 -86.5q43 22 86 57.5t72 68.5l32 37l35 41l13 -15q-12 -15 -26.5 -32t-27.5 -31l-11 -13q-38 -41 -73.5 -72t-77 -52t-93.5 -31.5t-124 -10.5zM284 559q8 10 17 21t16.5 21.5t13 19.5t6.5 14q-9 -1 -19 -10t-19 -22t-16 -28.5t-10 -30.5q3 3 5.5 7
t5.5 8z" />
    <glyph glyph-name="t" unicode="t" horiz-adv-x="363" 
d="M222 509h-99v28h119l119 166h124l-82 -107l-44 -59h96v-28h-119q-48 -63 -91 -124t-94 -133q-15 -21 -32.5 -46.5t-32.5 -51.5t-25.5 -51t-10.5 -45q0 -18 10.5 -30t36.5 -12q34 0 76 30.5t86 77.5q24 27 52 60t52 64l13 -15q-24 -31 -50.5 -63t-51.5 -59
q-48 -51 -94 -83.5t-88 -32.5q-49 0 -75.5 24.5t-26.5 68.5q0 24 7.5 48.5t18.5 48.5t25 47t27 44t20.5 33.5t14.5 23.5t15 23t22 32q-23 -28 -46 -55.5t-46 -56.5l-43 -53l-13 15q30 37 63.5 77.5t64 77t56.5 66t42 44.5z" />
    <glyph glyph-name="u" unicode="u" horiz-adv-x="602" 
d="M237 476q0 8 -5 8q-15 0 -43 -30t-65 -78q-26 -33 -57.5 -73.5t-61.5 -79.5l-13 15q14 17 28.5 36.5t27.5 36.5l61 78q4 5 8.5 10.5t8.5 10.5q11 14 24.5 30.5t28 30.5t29 23.5t27.5 9.5q24 0 38.5 -14.5t14.5 -39.5q0 -20 -10 -47t-26 -57t-36 -62.5t-41 -64.5l-19 -28
q-18 -27 -34.5 -52t-28.5 -46.5t-19.5 -39t-7.5 -28.5q0 -12 15 -12q29 0 61.5 20.5t65.5 52.5q32 31 65 72t65 83q23 39 48 79t48 75q22 34 41.5 63t31.5 46h128l-111 -146q-37 -49 -76 -103t-73 -104q-8 -12 -18.5 -27.5t-19.5 -32t-15.5 -32t-6.5 -26.5q0 -17 22 -17
q32 0 73.5 30t85.5 76q26 27 53 60.5t53 65.5l13 -15l-21 -27l-42.5 -51t-42.5 -48q-23 -23 -46 -43.5t-46 -35.5t-44.5 -24t-40.5 -9q-40 0 -55 17t-15 44q0 20 7 43t18 46q-17 -21 -35 -40.5t-34 -35.5q-33 -31 -68.5 -53.5t-68.5 -22.5q-58 0 -81.5 18.5t-23.5 48.5
q0 20 9.5 44.5t25 51.5t36 55t42.5 57l45 56q18 22 36.5 45.5t33 44t24 37t9.5 25.5z" />
    <glyph glyph-name="v" unicode="v" horiz-adv-x="588" 
d="M601 233q-15 -20 -38 -44.5t-49 -47.5q-37 -32 -75.5 -56t-69.5 -24q-24 0 -37.5 18.5t-13.5 53.5q-34 -29 -71.5 -58t-73.5 -49q-22 -13 -45 -23t-47 -10q-59 0 -82 20t-23 52q0 19 9.5 43t25 50t36 54t42.5 56l45 56q18 22 36.5 45.5t33 44t24 37t9.5 25.5q0 2 -1 5
t-6 3q-12 0 -37 -26.5t-59 -69.5l-67 -85l-62 -80l-13 15l53 68q20 26 38.5 50t35.5 45q35 44 64.5 74.5t54.5 30.5q26 0 38 -15.5t12 -40.5q0 -21 -10 -47.5t-25.5 -56.5t-36 -62.5t-41.5 -64.5l-27 -40q-16 -24 -31 -47t-26 -43.5t-18 -36.5t-7 -25t6.5 -11.5t14.5 -2.5
q19 0 40.5 10t35.5 18q38 21 79.5 53.5t76.5 64.5q3 34 22 85t49 106q22 41 47 77t46 56q9 8 17 12.5t16 4.5q12 0 16 -10.5t4 -25.5q-2 -45 -23 -88t-45 -79q-29 -42 -63.5 -82.5t-67.5 -67.5q-1 -5 -1 -14q0 -53 34 -53q13 0 29 7t33.5 18t36 25t35.5 29q25 23 47.5 47
t36.5 42z" />
    <glyph glyph-name="w" unicode="w" horiz-adv-x="732" 
d="M745 233q-18 -23 -44 -50.5t-53 -47.5q-26 -20 -57.5 -36.5t-67.5 -16.5q-18 0 -33.5 9t-23.5 29q-19 -19 -41.5 -38t-45.5 -36q-27 -20 -56.5 -35.5t-61.5 -15.5q-18 0 -30.5 8t-20 21t-11 29t-3.5 31q0 33 14 72q-29 -34 -58 -63.5t-57 -51t-55 -34t-52 -12.5
q-40 0 -55 17.5t-15 46.5t14.5 63.5t31.5 63.5q46 84 97 163.5t102 154.5h128q-59 -78 -100.5 -133.5t-71 -96t-50 -69.5t-38.5 -54q-8 -12 -18.5 -27.5t-19.5 -31.5t-15 -32t-6 -28q0 -16 21 -16q27 0 58 19t64.5 50.5t68.5 72t69 83.5v-1l26 46q15 28 31 57t32 56
q18 31 35 58.5t29 46.5h124q-26 -33 -52 -68t-48 -64q-89 -120 -141.5 -203.5t-52.5 -124.5q0 -11 7 -20.5t26 -9.5q12 0 25.5 5t27 12t25.5 15.5t21 14.5q22 17 47 39t47 44q0 60 23.5 117t60.5 110q7 10 19 26t26 33t29 32.5t28 24.5q18 13 28 13q19 0 19 -21
q0 -15 -8 -36.5t-19.5 -45t-25 -45.5t-23.5 -39q-29 -45 -64.5 -91t-73.5 -86q5 -17 16.5 -26t25.5 -9q28 0 57.5 14.5t56.5 35.5q28 22 53 48t42 49z" />
    <glyph glyph-name="x" unicode="x" horiz-adv-x="452" 
d="M444 373q-27 -22 -67 -44t-78 -40l-50 -91q-30 -54 -53 -99t-23 -69q0 -14 13 -14q30 0 66 24.5t74 62.5q32 32 64 69.5t62 75.5l13 -15q-32 -40 -63.5 -77.5t-62.5 -67.5h1q-42 -41 -81.5 -67t-77.5 -26q-57 0 -80 19.5t-23 52.5q0 29 16.5 66t42.5 79
q-30 -15 -60 -33.5t-54 -42t-39 -53.5t-15 -68q0 -20 8 -40t28 -41q-20 1 -39 5t-34.5 11.5t-25 19.5t-9.5 29q0 38 24.5 73t62.5 65.5t83.5 57t88.5 47.5q16 23 33 47t33 46q34 47 59.5 85t25.5 56q0 5 -3.5 6.5t-7.5 1.5q-17 0 -36.5 -9t-40.5 -24.5t-43 -36t-43 -42.5
q-23 -26 -47.5 -53.5t-44.5 -52.5l-22 -26q-3 -3 -7.5 -8.5t-6.5 -8.5l-13 15l35 43q21 26 44 52.5t48 52.5q22 23 45.5 44.5t47 38t46.5 26t44 9.5q23 0 39.5 -14t16.5 -40t-12.5 -60.5t-32.5 -73.5q32 16 63.5 35t56.5 37q27 23 44 47t17 52q0 13 -8 39l20 2q7 -22 7 -41
q0 -34 -18.5 -62t-50.5 -52z" />
    <glyph glyph-name="y" unicode="y" horiz-adv-x="615" 
d="M80 13q41 0 85 36t89 89q14 15 26.5 31t25.5 33l16 20q8 10 18 23.5t30.5 43t55.5 80.5t92 135h129l-97 -127q-15 -21 -38.5 -54t-52 -72.5t-60.5 -84.5t-63 -90q-13 -18 -27 -39.5t-30 -44.5q-8 -14 -12.5 -20.5t-15.5 -21.5q91 41 173.5 104.5t145.5 137.5
q10 13 22.5 28t22.5 28l13 -15l-18 -23q-5 -8 -12 -16t-13 -15q-34 -39 -76 -77.5t-88 -73t-95 -63.5t-97 -49q-28 -41 -58 -84.5t-62 -85t-66 -80t-69 -70.5q-21 -19 -44.5 -37.5t-49.5 -33t-54 -23.5t-58 -9q-33 0 -57 20.5t-24 56.5q0 31 13.5 62t33.5 55t48.5 50.5
t66.5 49.5q28 17 59 32t62 27.5t61 23t56 19.5l45 14q18 29 35.5 57.5t32.5 53.5l63 102l9 13l-3 -4q-23 -28 -47 -52t-48 -42t-48 -28t-48 -10q-57 0 -79.5 18.5t-22.5 48.5q0 19 9 43.5t25 51.5t36 55.5t43 57.5l45 56q18 22 36.5 45.5t33 44t24 37t9.5 25.5q0 8 -7 8
q-9 0 -24.5 -13t-35.5 -36t-43.5 -53.5t-49.5 -64.5q-17 -22 -35.5 -46.5t-36.5 -47.5l-13 15q17 22 35.5 46t34.5 45q27 36 51.5 67.5t46 55.5t40.5 38t34 14q25 0 39 -14.5t14 -39.5q0 -42 -37 -107t-91 -148q-18 -27 -35 -53t-29.5 -48t-20.5 -39.5t-8 -28.5
q0 -13 14 -13zM-53 -361q42 50 86 113t82 123q-4 -2 -7.5 -2.5t-6.5 -1.5l-9 -2h2q-60 -19 -117.5 -41t-115.5 -58q-35 -22 -63.5 -47t-47.5 -48q-17 -22 -30.5 -49t-13.5 -57q0 -23 16 -39.5t42 -16.5t52 13t50 32t45 41t36 40z" />
    <glyph glyph-name="z" unicode="z" horiz-adv-x="417" 
d="M305 86v1q-12 -13 -27 -29t-31.5 -30t-31.5 -23.5t-27 -9.5q-14 0 -23 10t-17 23q-7 12 -15.5 22.5t-22.5 10.5q-13 0 -26 -6t-25.5 -14.5t-23.5 -18t-18 -16.5h1q-11 -11 -16 -11q-11 0 -20.5 5.5t-16.5 14.5t-11 20t-4 21q0 25 26.5 59t67.5 72t91 77t97 75
q30 23 58 44.5t49.5 40t34.5 32t13 19.5q0 9 -7 9q-4 0 -21.5 -8t-40.5 -19q-17 -8 -36 -17t-36.5 -16t-33 -12t-25.5 -5t-17.5 7.5t-12.5 15.5q-9 -13 -21 -29.5t-24.5 -34t-24 -33t-18.5 -25.5l-64 -85l-13 15l62 83q9 11 21.5 28.5t26 36t26 35.5t20.5 29q-5 13 -6 26.5
t-1 25.5q0 18 5 32.5t13 25.5t17.5 17t18.5 6q23 0 23 -27q0 -17 -11 -38.5t-18 -34.5l-1 -2h7q26 1 59.5 5.5t63.5 9.5q43 8 65 8q10 0 16 -5t9 -12.5t4 -15t1 -13.5q0 -11 -16.5 -34t-44 -52.5t-62 -64t-70.5 -68.5q-26 -26 -53 -52t-51 -50.5t-43.5 -45.5t-30.5 -37
q17 12 34.5 20t35.5 8q21 0 33 -14.5t21 -29.5q5 -9 10.5 -16t11.5 -7q10 0 27.5 13.5t35.5 31t34 34.5t22 24q27 29 54.5 62t55.5 68l13 -15q-28 -35 -56 -68.5t-54 -61.5zM193 564q-11 0 -22 -18.5t-11 -37.5q0 -15 10 -22q3 6 8.5 15t10 19t8 20t3.5 17t-7 7z" />
    <glyph glyph-name="braceleft" unicode="{" horiz-adv-x="527" 
d="M704 861q-8 6 -16.5 8t-19.5 2q-26 0 -51.5 -20.5t-46.5 -48t-36 -56.5t-22 -47q-17 -44 -30 -84q-14 -39 -27 -73t-30 -60.5t-40 -43.5t-56 -23q2 -5 2.5 -9.5t0.5 -9.5q0 -32 -24.5 -80t-58.5 -107q-13 -22 -25.5 -44t-25.5 -46q-7 -13 -14.5 -31.5t-14 -38.5t-11 -41
t-4.5 -38q0 -18 6.5 -30t23.5 -12q1 0 9 0.5t19 2.5v-15q-23 -6 -44 -6q-42 1 -64.5 28.5t-22.5 70.5q0 23 7.5 49.5t23.5 53.5q12 20 32.5 46.5t43.5 54.5q21 25 41.5 51t37 50t27 45t10.5 37q0 18 -17.5 25t-36.5 9l1 16q27 0 43 -4t24 -12q37 6 57.5 25.5t30.5 46.5
t12.5 58.5t4.5 62.5q2 26 4 49t7 40q10 33 35 64.5t56.5 56.5t66.5 40t67 15q31 0 52 -12z" />
    <glyph glyph-name="bar" unicode="|" horiz-adv-x="561" 
d="M366 886v-1015h-57v1015h57z" />
    <glyph glyph-name="braceright" unicode="}" horiz-adv-x="530" 
d="M-75 -105q8 -6 16.5 -8t19.5 -2q26 0 51 20.5t46 48t36.5 56.5t22.5 47q16 43 30 84q13 39 26.5 73t30.5 60.5t40 43.5t56 23q-2 5 -2.5 9.5t-0.5 9.5q0 32 25 79.5t58 106.5q13 22 25.5 44.5t25.5 46.5q7 13 14.5 31.5t14 38.5t11 41t4.5 38q0 18 -6.5 30t-23.5 12
q-1 0 -9.5 -1t-18.5 -2v15q22 6 44 6q42 -1 64.5 -28.5t22.5 -70.5q0 -23 -7.5 -49.5t-23.5 -53.5q-12 -20 -32.5 -46.5t-43.5 -54.5q-21 -26 -42 -51.5t-37.5 -49.5t-26.5 -45t-10 -37q0 -18 17.5 -25t36.5 -9l-1 -16q-52 0 -68 15q-36 -7 -56 -26.5t-30 -46t-13.5 -58
t-4.5 -61.5q-2 -26 -4 -49t-7 -40q-11 -33 -35.5 -64.5t-56 -56.5t-67 -40t-66.5 -15q-14 0 -27.5 3t-24.5 9z" />
    <glyph glyph-name="asciitilde" unicode="~" horiz-adv-x="693" 
d="M567 365q5 -4 11 -7t12 -7l18 -11l-8 -16l-15 8l-27 15q-16 8 -29 12.5t-27 4.5q-20 0 -44.5 -15.5t-63.5 -47.5q-29 -23 -59 -34t-59 -11q-44 0 -82 20t-62 53q-7 11 -12.5 23.5t-10.5 26.5l18 2q5 -14 10 -23.5t10 -17.5q26 -38 70 -38q52 0 124 58q32 26 58 37t50 11
q30 0 58 -12t60 -31z" />
    <glyph glyph-name="exclamdown" unicode="&#xa1;" horiz-adv-x="553" 
d="M5 -228q-18 0 -32.5 11.5t-14.5 31.5q0 8 6.5 25t25.5 43q72 100 132 184.5t112 162.5q43 64 85.5 129t93.5 142q9 14 20 30t20 30l17 -9q-66 -104 -115.5 -186t-88.5 -154q-33 -59 -62 -115t-61 -118l-88 -169q-10 -19 -23 -28.5t-27 -9.5zM511 591q-21 0 -35.5 13.5
t-14.5 33.5t14.5 33.5t35.5 13.5t35.5 -13.5t14.5 -33.5t-14.5 -33.5t-35.5 -13.5z" />
    <glyph glyph-name="cent" unicode="&#xa2;" horiz-adv-x="548" 
d="M578 671l-59 -80q15 -5 24.5 -15t9.5 -30q0 -13 -5 -30t-13.5 -34.5t-18.5 -33t-20 -26.5q-6 -7 -16 -17.5t-22 -21t-23.5 -18t-19.5 -7.5q-9 0 -9 13q0 16 13 42.5t32 52t41 45t39 21.5q3 9 3 16q0 11 -9 17t-20 8l-341 -458q11 -12 36 -12q50 0 100 30.5t96 73.5
l14 -14q-48 -45 -101.5 -77.5t-110.5 -32.5q-28 0 -49 10q-18 -25 -37.5 -50.5t-37.5 -49.5l-22 17l73 98q-13 13 -21 33.5t-8 46.5q0 48 23.5 105.5t61.5 110.5q28 38 63.5 73t74 61.5t79 42t78.5 15.5q3 0 6 0.5t7 -0.5l68 92zM265 353q-22 -30 -41 -59.5t-34 -56
t-24.5 -49.5t-10.5 -39l312 418q-24 -12 -51.5 -37t-54.5 -55.5t-52 -63t-44 -58.5z" />
    <glyph glyph-name="sterling" unicode="&#xa3;" horiz-adv-x="1161" 
d="M1245 846q51 0 81.5 -24.5t30.5 -75.5q0 -20 -6.5 -44.5t-20.5 -51.5h-37q16 26 28 53.5t12 56.5q0 31 -21 50t-67 19q-93 0 -172 -43t-145 -110t-119 -147t-93 -154l102 4h4q20 0 30 -6.5t10 -15.5q0 -8 -9.5 -14.5t-27.5 -6.5h-7q-32 3 -58.5 5.5t-59.5 4.5l-8 -15v1
q-29 -54 -60 -96.5t-69.5 -75.5t-85 -57t-105.5 -41q83 -32 168 -54t164 -23q69 0 132 19.5t116 68.5l13 -14q-81 -73 -155.5 -102.5t-143.5 -29.5q-45 0 -88.5 10.5t-86 28t-84.5 39.5t-84 45q-32 -8 -66.5 -13.5t-67.5 -5.5q-51 0 -91.5 13t-69 31.5t-43.5 39.5t-15 39
q0 23 18.5 31t38.5 8q26 0 65.5 -11t93.5 -37v-1q34 -17 69 -32.5t73 -31.5q57 29 110.5 84t107.5 121l17 22l35 44l-118 5l-1 17h135l17 22q61 81 126.5 161.5t140 145t160 104.5t187.5 40zM182 49q27 0 57 4.5t55 12.5q-27 15 -56.5 31t-59.5 30q-40 20 -69.5 28t-49.5 8
q-13 0 -28 -5t-15 -22q0 -13 11 -28t32 -27.5t52 -21.5t71 -10z" />
    <glyph glyph-name="currency" unicode="&#xa4;" horiz-adv-x="560" 
d="M481 521q5 8 17 8q11 0 18.5 -7.5t7.5 -15.5t-2 -11t-5 -6l-100 -67q8 -11 11 -25.5t3 -31.5q0 -33 -13.5 -74.5t-36.5 -83.5q-25 -46 -60 -85t-76 -59q5 -7 11.5 -17.5t14.5 -22.5t16.5 -25.5t16.5 -24.5q0 -1 0.5 -2.5t0.5 -2.5l-1 2q1 -2 2 -4.5t1 -3.5q0 -9 -8.5 -16
t-17.5 -7q-6 0 -10 3q-2 2 -5 6.5t-5 8.5l-17 55v-1q-4 11 -7 20t-8 25q-13 -5 -26.5 -7t-27.5 -2q-31 0 -44 23q-21 -23 -37.5 -43t-33.5 -43q-6 -8 -17 -8t-18.5 8.5t-7.5 16.5q0 10 10 18l97 67q-3 9 -4 20t-1 24q0 32 11 74t32 84q23 47 55.5 86t71.5 59l-34 52l-22 35
l-4.5 9t-2.5 6q0 8 8 15.5t19 7.5q6 0 8 -2q8 -4 13 -14q4 -20 8 -35t9 -30q3 -10 5.5 -16.5t6.5 -19.5q13 5 26 7t28 2q14 0 26.5 -4.5t21.5 -12.5l18 20v-1q17 18 29.5 33t28.5 36zM221 262q-26 -49 -42.5 -98t-16.5 -78q0 -22 13 -22q17 0 37 14t40 37.5t39 53.5t35 62
q23 46 38.5 90.5t15.5 74.5q0 35 -21 35q-14 0 -31 -14t-35.5 -37.5t-37 -54t-34.5 -63.5z" />
    <glyph glyph-name="yen" unicode="&#xa5;" horiz-adv-x="1104" 
d="M1291 872q26 11 55.5 18.5t61.5 8.5v-17q-27 0 -56 -8.5t-52 -19.5q-63 -30 -123 -83t-115 -118.5t-104.5 -138.5t-91.5 -144l-14 -24.5l-14 -24.5q20 2 37.5 4t39.5 5l9 1q17 0 26 -8t9 -17q0 -10 -10 -17.5t-30 -7.5q-5 0 -9 0.5t-9 0.5q-22 2 -41.5 2.5t-43.5 1.5
q-14 -24 -25.5 -45.5t-26.5 -45.5l117 -5v-19h-133q-41 -77 -95.5 -138.5t-120 -105t-141.5 -67t-160 -23.5q-44 0 -83.5 11.5t-68.5 40.5q-11 11 -21 26.5t-15 31.5q-10 28 -10 58q0 39 14.5 72.5t40.5 59.5l13 -13q-23 -23 -36 -53.5t-13 -65.5q0 -27 9 -51q10 -28 32 -50
q23 -23 51.5 -33t60.5 -10q65 0 124.5 29.5t112.5 74.5t100 99t86 103l-77 -2q-16 0 -23.5 8t-7.5 16q0 10 9 17t27 7l100 -10q16 21 30.5 42t31.5 43q-29 1 -60 2.5t-60 2.5v16l143 8q40 55 83.5 111.5t89 111.5t92.5 107t96 97q-66 -45 -125.5 -95.5t-122.5 -104.5
q-53 -46 -102.5 -87.5t-96 -73t-90.5 -50t-86 -18.5q-52 0 -73 19.5t-21 52.5q0 29 15 67.5t40 83t56.5 92t64.5 95.5q36 53 68.5 100.5t47.5 78.5h-1q5 10 9 21t4 22q0 16 -13.5 24t-44.5 8q-50 0 -105 -25.5t-105 -68.5q-48 -42 -84.5 -96t-52.5 -114l-18 8
q15 60 53.5 116.5t89.5 99.5q26 21 54.5 39.5t57 31.5t56.5 20.5t54 7.5q54 0 82 -27t28 -78q0 -26 -9.5 -54t-25 -58t-36.5 -61t-45 -62q-19 -25 -38.5 -49.5t-38.5 -47.5q-26 -31 -49 -60t-40.5 -54.5t-28 -46.5t-10.5 -37q0 -29 59 -29q40 0 82 18.5t87.5 49t93.5 71.5
t100 86q49 42 101.5 86.5t108.5 86t115.5 78t123.5 62.5z" />
    <glyph glyph-name="section" unicode="&#xa7;" horiz-adv-x="722" 
d="M617 801q24 0 47 -7.5t40 -22.5t27.5 -37t10.5 -51q0 -32 -15 -64t-46 -61q-24 -21 -46 -21q-13 0 -21.5 9.5t-8.5 24.5q0 21 15.5 30.5t32.5 15.5l15 6h-1q26 11 37.5 30.5t11.5 39.5q0 22 -7.5 38t-20.5 26.5t-29 15.5t-33 5q-27 0 -52 -11t-44.5 -32.5t-31.5 -54
t-12 -74.5q0 -32 5.5 -64.5t12.5 -65.5q7 -34 13 -68.5t6 -72.5q0 -23 -2.5 -46.5t-9.5 -48.5q-10 -36 -27 -64.5t-37.5 -48.5t-42.5 -31.5t-42 -14.5q-30 -45 -78.5 -72.5t-105.5 -27.5q-24 0 -47 7.5t-40.5 22.5t-28.5 36.5t-11 49.5q0 32 15.5 65t47.5 62q24 21 45 21
q13 0 21.5 -9t8.5 -25q0 -20 -15 -29.5t-32 -15.5l-16 -6h1q-26 -12 -37.5 -31t-11.5 -39q0 -22 7.5 -38.5t20.5 -27t29 -15.5t33 -5q32 0 58 14.5t44.5 39t28.5 55.5t10 64q0 32 -5.5 64.5t-12.5 64.5q-8 33 -14 69t-6 73q0 44 12 94q10 37 27 66t37 48.5t42.5 30.5
t42.5 14q30 45 79 72.5t106 27.5zM394 200q0 -26 -4 -50t-14 -44q44 11 60 43t16 77q0 35 -7 75.5t-16 85.5q-5 21 -9.5 46.5t-9 52t-7 51.5t-2.5 46q0 26 3.5 50t14.5 44q-43 -11 -60 -43.5t-17 -77.5q0 -35 7.5 -76.5t16.5 -85.5l4 -21q9 -44 16.5 -88.5t7.5 -84.5z" />
    <glyph glyph-name="copyright" unicode="&#xa9;" horiz-adv-x="856" 
d="M563 814q59 0 108.5 -21.5t85.5 -58.5t56 -88t20 -111q0 -69 -26.5 -132t-72.5 -111t-108.5 -77t-134.5 -29q-59 0 -109 21.5t-86 59t-56 89t-20 110.5q0 66 26.5 129t72.5 111.5t109 78t135 29.5zM492 207q62 0 113.5 28t88 74.5t56.5 106t20 122.5q0 50 -12.5 96
t-38 81.5t-65 56.5t-93.5 21q-63 0 -114 -28.5t-87 -75t-56 -106t-20 -121.5q0 -50 12 -96t37.5 -81.5t64.5 -56.5t94 -21zM577 475q-10 0 -13 6.5t-3 17.5q0 15 4 36t12 41.5t19.5 38t26.5 25.5q-1 17 -10 28.5t-28 11.5q-24 0 -47.5 -29.5t-41.5 -73t-29 -94t-11 -92.5
q0 -39 13.5 -65t45.5 -26q41 0 68.5 24t49.5 56l12 -11q-9 -15 -22.5 -31.5t-30.5 -30t-37.5 -22.5t-44.5 -9q-38 0 -64 10t-42 27.5t-23.5 41t-7.5 50.5q0 46 19 98t49 95.5t66.5 72t71.5 28.5q12 0 23.5 -3.5t21 -12t15.5 -23.5t6 -38q0 -21 -5.5 -43t-14.5 -42t-20.5 -36
t-24.5 -25z" />
    <glyph glyph-name="registered" unicode="&#xae;" horiz-adv-x="856" 
d="M490 186q-59 0 -110.5 21.5t-89 58.5t-59 88t-21.5 111q0 69 28 132t76 111t112 77t136 29q59 0 110.5 -21.5t89.5 -59t59.5 -89t21.5 -110.5q0 -66 -28 -129t-76 -111.5t-112.5 -78t-136.5 -29.5zM561 793q-62 0 -116.5 -28t-95 -74.5t-63.5 -106t-23 -122.5
q0 -50 15.5 -96t44.5 -81.5t72 -56.5t97 -21q63 0 117 28.5t94 75t63 106t23 121.5q0 50 -15 96t-44 81.5t-71.5 56.5t-97.5 21zM355 403q26 0 52.5 18t53.5 48q-13 -8 -29 -13t-35 -5q-29 0 -50 20.5t-21 48.5q0 39 19.5 74.5t52.5 62t77 42t94 15.5q33 0 61 -8.5t48 -23.5
t31.5 -36.5t11.5 -48.5q0 -23 -11.5 -40.5t-30 -29.5t-40.5 -18.5t-43 -6.5q-8 0 -13.5 0.5t-12.5 2.5q9 -11 15.5 -23.5t6.5 -27.5q0 -14 -3 -27t-8 -25q-5 -14 -9 -29.5t-4 -31.5t8.5 -28t29.5 -12q17 0 33 9.5t33 26.5l18 -10q-22 -20 -46.5 -36.5t-45.5 -16.5
q-38 0 -60.5 19.5t-22.5 51.5q0 15 5.5 30.5t13.5 31.5q8 17 14.5 34t6.5 32q0 10 -4 22.5t-12 20.5q-41 -71 -83 -114.5t-92 -43.5q-27 0 -43 16.5t-16 32.5q0 19 11 31t19 20l8 -20q-4 -5 -7 -10.5t-3 -10.5q0 -6 4 -10t18 -4zM519 574q7 0 14 -16q20 28 50.5 60t57.5 56
q-13 8 -28.5 12.5t-35.5 4.5q-44 0 -82 -15.5t-66.5 -40.5t-44.5 -57t-16 -65q0 -17 9.5 -30t32.5 -13q16 0 31 9t27 24t19.5 33.5t7.5 37.5q0 8 -2.5 19t-6.5 19l6 5q11 -8 16.5 -20.5t6.5 -23.5q1 0 2 0.5t2 0.5zM677 616q0 14 -6 25.5t-15 20.5q-13 -13 -27.5 -29
t-28.5 -33.5t-27.5 -35t-23.5 -33.5q13 -12 35 -12q16 0 33 6.5t30 19t21.5 30.5t8.5 41zM514 549q-1 -6 -3 -12.5t-4 -12.5l13 17q-2 2 -2 3l1 -3z" />
    <glyph glyph-name="questiondown" unicode="&#xbf;" horiz-adv-x="695" 
d="M156 -128q-27 0 -55 5t-51.5 17.5t-38 34.5t-14.5 56q0 64 27 118.5t71 103t100 93t115 88.5q42 31 83.5 62.5t80 64t71 67.5t56.5 74q2 -1 5 -2q2 -2 5 -3.5t5 -3.5q-21 -37 -48.5 -70.5t-58.5 -64.5t-65 -59.5t-67 -55.5q-11 -10 -23 -20t-23 -19q-44 -36 -88.5 -79
t-80.5 -92t-59 -104.5t-23 -117.5q0 -32 19 -53.5t61 -21.5q34 0 68 9.5t65.5 26.5t60.5 39.5t54 48.5q21 21 43 47t40 55t29.5 60t11.5 63q0 22 -11 35t-35 13q-50 0 -97.5 -19.5t-88.5 -51.5q-45 -35 -77.5 -82.5t-43.5 -94.5l-20 2q13 51 47 101.5t82 88.5q42 34 90.5 54
t100.5 20q56 0 79.5 -23.5t23.5 -59.5q0 -25 -10.5 -54.5t-29 -60.5t-45 -62t-58.5 -59q-57 -49 -129.5 -81.5t-153.5 -32.5zM662 688q-21 0 -35.5 13.5t-14.5 33.5t14.5 33.5t35.5 13.5t35.5 -13.5t14.5 -33.5t-14.5 -33.5t-35.5 -13.5z" />
    <glyph glyph-name="Agrave" unicode="&#xc0;" horiz-adv-x="1919" 
d="M2767 1168q108 0 209.5 -30t190.5 -96l-2 -16q-90 66 -192 94.5t-206 28.5q-49 0 -104.5 -8t-112 -22.5t-111.5 -35.5t-104 -47q-64 -38 -133.5 -92.5t-139.5 -121.5t-137.5 -143.5t-125.5 -157.5q2 -22 2 -46v-47q0 -30 -1.5 -60.5t-3.5 -62.5q-8 -96 -27 -181t-46 -151
q-14 -34 -34 -70.5t-47.5 -66.5t-62 -49t-77.5 -19q-48 0 -68.5 28t-20.5 74q0 72 29 158.5t79 178t115.5 184.5t139.5 180q-4 29 -8 56t-10 53q-72 -64 -138.5 -132t-127.5 -138q-66 -76 -132 -150t-136 -140t-146 -122t-162 -97t-184.5 -64t-213.5 -23q-104 0 -199 24.5
t-167 78.5t-114.5 139.5t-42.5 208.5q0 103 34 201t94 181t143.5 148t182.5 102q63 23 120 33t119 10h21t22 -1q4 8 9.5 20t13.5 26q32 55 77.5 97t101 70t119 42.5t131.5 14.5q131 0 244.5 -52t199.5 -154q44 -52 78 -116t57 -146q132 100 274.5 184.5t281.5 142.5
q103 42 216.5 70t232.5 30zM1230 277q115 112 244.5 228t271.5 223q-23 81 -57 146.5t-77 116.5q-78 94 -186 144.5t-233 50.5q-59 0 -116 -14t-108.5 -42.5t-95.5 -70.5t-75 -98h1q-2 -6 -5 -13t-6 -13q47 -6 89.5 -16t84 -24.5t82.5 -33t85 -41.5l-4 -9q-46 19 -88.5 34.5
t-84.5 26t-86 17.5t-92 10q-7 -23 -11 -46.5t-4 -50.5q0 -48 18 -97.5t50 -87.5q24 -26 56 -46.5t67.5 -34.5t73.5 -21.5t75 -7.5q39 0 70 3.5t59.5 11t56.5 18.5t60 25l5 -9q-32 -21 -61 -37t-59.5 -27t-65.5 -17t-80 -6q-83 0 -159.5 24.5t-138.5 86.5q-38 45 -60.5 100
t-22.5 119q0 26 3.5 50.5t10.5 50.5q-66 -2 -124.5 -13.5t-124.5 -38.5q-86 -35 -162.5 -94.5t-134.5 -137.5t-91.5 -170.5t-33.5 -192.5q0 -102 34.5 -179t94 -129.5t138 -79t167.5 -26.5q77 0 148 18.5t136.5 50t127 74t119 91t112 101t107.5 103.5zM1783 428v35t-2 34
q-55 -78 -101.5 -158t-80.5 -158t-53.5 -152.5t-19.5 -140.5q0 -68 37 -68q25 0 47.5 17.5t41 43t32 52.5t21.5 47q27 67 45.5 150t26.5 176q3 32 4 62.5t2 59.5zM1775 694q5 -26 9.5 -51.5t8.5 -52.5q62 70 127.5 136t131 123.5t129.5 105t122 82.5q-143 -61 -275 -149
t-253 -194zM1886 1330q22 -29 41 -52t42 -49l53 -63l-10 -10l-80 55l-98 67q-15 12 -15 27q0 14 11.5 26.5t28.5 12.5q8 0 15 -3t12 -11z" />
    <glyph glyph-name="Aacute" unicode="&#xc1;" horiz-adv-x="1919" 
d="M2767 1168q108 0 209.5 -30t190.5 -96l-2 -16q-90 66 -192 94.5t-206 28.5q-49 0 -104.5 -8t-112 -22.5t-111.5 -35.5t-104 -47q-64 -38 -133.5 -92.5t-139.5 -121.5t-137.5 -143.5t-125.5 -157.5q2 -22 2 -46v-47q0 -30 -1.5 -60.5t-3.5 -62.5q-8 -96 -27 -181t-46 -151
q-14 -34 -34 -70.5t-47.5 -66.5t-62 -49t-77.5 -19q-48 0 -68.5 28t-20.5 74q0 72 29 158.5t79 178t115.5 184.5t139.5 180q-4 29 -8 56t-10 53q-72 -64 -138.5 -132t-127.5 -138q-66 -76 -132 -150t-136 -140t-146 -122t-162 -97t-184.5 -64t-213.5 -23q-104 0 -199 24.5
t-167 78.5t-114.5 139.5t-42.5 208.5q0 103 34 201t94 181t143.5 148t182.5 102q63 23 120 33t119 10h21t22 -1q4 8 9.5 20t13.5 26q32 55 77.5 97t101 70t119 42.5t131.5 14.5q131 0 244.5 -52t199.5 -154q44 -52 78 -116t57 -146q132 100 274.5 184.5t281.5 142.5
q103 42 216.5 70t232.5 30zM1230 277q115 112 244.5 228t271.5 223q-23 81 -57 146.5t-77 116.5q-78 94 -186 144.5t-233 50.5q-59 0 -116 -14t-108.5 -42.5t-95.5 -70.5t-75 -98h1q-2 -6 -5 -13t-6 -13q47 -6 89.5 -16t84 -24.5t82.5 -33t85 -41.5l-4 -9q-46 19 -88.5 34.5
t-84.5 26t-86 17.5t-92 10q-7 -23 -11 -46.5t-4 -50.5q0 -48 18 -97.5t50 -87.5q24 -26 56 -46.5t67.5 -34.5t73.5 -21.5t75 -7.5q39 0 70 3.5t59.5 11t56.5 18.5t60 25l5 -9q-32 -21 -61 -37t-59.5 -27t-65.5 -17t-80 -6q-83 0 -159.5 24.5t-138.5 86.5q-38 45 -60.5 100
t-22.5 119q0 26 3.5 50.5t10.5 50.5q-66 -2 -124.5 -13.5t-124.5 -38.5q-86 -35 -162.5 -94.5t-134.5 -137.5t-91.5 -170.5t-33.5 -192.5q0 -102 34.5 -179t94 -129.5t138 -79t167.5 -26.5q77 0 148 18.5t136.5 50t127 74t119 91t112 101t107.5 103.5zM1783 428v35t-2 34
q-55 -78 -101.5 -158t-80.5 -158t-53.5 -152.5t-19.5 -140.5q0 -68 37 -68q25 0 47.5 17.5t41 43t32 52.5t21.5 47q27 67 45.5 150t26.5 176q3 32 4 62.5t2 59.5zM1775 694q5 -26 9.5 -51.5t8.5 -52.5q62 70 127.5 136t131 123.5t129.5 105t122 82.5q-143 -61 -275 -149
t-253 -194zM1953 1330q5 8 12 11t15 3q17 0 28.5 -12.5t11.5 -26.5q0 -15 -15 -27l-98 -67l-81 -54l-9 9l53 63q23 26 42 49t41 52z" />
    <glyph glyph-name="Acircumflex" unicode="&#xc2;" horiz-adv-x="1919" 
d="M2767 1168q108 0 209.5 -30t190.5 -96l-2 -16q-90 66 -192 94.5t-206 28.5q-49 0 -104.5 -8t-112 -22.5t-111.5 -35.5t-104 -47q-64 -38 -133.5 -92.5t-139.5 -121.5t-137.5 -143.5t-125.5 -157.5q2 -22 2 -46v-47q0 -30 -1.5 -60.5t-3.5 -62.5q-8 -96 -27 -181t-46 -151
q-14 -34 -34 -70.5t-47.5 -66.5t-62 -49t-77.5 -19q-48 0 -68.5 28t-20.5 74q0 72 29 158.5t79 178t115.5 184.5t139.5 180q-4 29 -8 56t-10 53q-72 -64 -138.5 -132t-127.5 -138q-66 -76 -132 -150t-136 -140t-146 -122t-162 -97t-184.5 -64t-213.5 -23q-104 0 -199 24.5
t-167 78.5t-114.5 139.5t-42.5 208.5q0 103 34 201t94 181t143.5 148t182.5 102q63 23 120 33t119 10h21t22 -1q4 8 9.5 20t13.5 26q32 55 77.5 97t101 70t119 42.5t131.5 14.5q131 0 244.5 -52t199.5 -154q44 -52 78 -116t57 -146q132 100 274.5 184.5t281.5 142.5
q103 42 216.5 70t232.5 30zM1230 277q115 112 244.5 228t271.5 223q-23 81 -57 146.5t-77 116.5q-78 94 -186 144.5t-233 50.5q-59 0 -116 -14t-108.5 -42.5t-95.5 -70.5t-75 -98h1q-2 -6 -5 -13t-6 -13q47 -6 89.5 -16t84 -24.5t82.5 -33t85 -41.5l-4 -9q-46 19 -88.5 34.5
t-84.5 26t-86 17.5t-92 10q-7 -23 -11 -46.5t-4 -50.5q0 -48 18 -97.5t50 -87.5q24 -26 56 -46.5t67.5 -34.5t73.5 -21.5t75 -7.5q39 0 70 3.5t59.5 11t56.5 18.5t60 25l5 -9q-32 -21 -61 -37t-59.5 -27t-65.5 -17t-80 -6q-83 0 -159.5 24.5t-138.5 86.5q-38 45 -60.5 100
t-22.5 119q0 26 3.5 50.5t10.5 50.5q-66 -2 -124.5 -13.5t-124.5 -38.5q-86 -35 -162.5 -94.5t-134.5 -137.5t-91.5 -170.5t-33.5 -192.5q0 -102 34.5 -179t94 -129.5t138 -79t167.5 -26.5q77 0 148 18.5t136.5 50t127 74t119 91t112 101t107.5 103.5zM1783 428v35t-2 34
q-55 -78 -101.5 -158t-80.5 -158t-53.5 -152.5t-19.5 -140.5q0 -68 37 -68q25 0 47.5 17.5t41 43t32 52.5t21.5 47q27 67 45.5 150t26.5 176q3 32 4 62.5t2 59.5zM1775 694q5 -26 9.5 -51.5t8.5 -52.5q62 70 127.5 136t131 123.5t129.5 105t122 82.5q-143 -61 -275 -149
t-253 -194zM2055 1228q5 -8 5 -17q0 -14 -12 -25.5t-28 -11.5q-9 0 -16 4.5t-9 15.5q-4 16 -8.5 36.5t-11.5 45.5l-11 41l-14 -17.5t-14 -15.5q-26 -29 -46.5 -54t-44.5 -57q-12 -15 -27 -15q-14 0 -27 12t-13 28q0 15 15 27q23 16 48 33t48 32.5t42 29t31 21.5h-1q1 1 3 2
q4 2 6 2q4 0 7 -6v1l25 -36q11 -17 25 -36t28 -40z" />
    <glyph glyph-name="Atilde" unicode="&#xc3;" horiz-adv-x="1919" 
d="M2767 1168q108 0 209.5 -30t190.5 -96l-2 -16q-90 66 -192 94.5t-206 28.5q-49 0 -104.5 -8t-112 -22.5t-111.5 -35.5t-104 -47q-64 -38 -133.5 -92.5t-139.5 -121.5t-137.5 -143.5t-125.5 -157.5q2 -22 2 -46v-47q0 -30 -1.5 -60.5t-3.5 -62.5q-8 -96 -27 -181t-46 -151
q-14 -34 -34 -70.5t-47.5 -66.5t-62 -49t-77.5 -19q-48 0 -68.5 28t-20.5 74q0 72 29 158.5t79 178t115.5 184.5t139.5 180q-4 29 -8 56t-10 53q-72 -64 -138.5 -132t-127.5 -138q-66 -76 -132 -150t-136 -140t-146 -122t-162 -97t-184.5 -64t-213.5 -23q-104 0 -199 24.5
t-167 78.5t-114.5 139.5t-42.5 208.5q0 103 34 201t94 181t143.5 148t182.5 102q63 23 120 33t119 10h21t22 -1q4 8 9.5 20t13.5 26q32 55 77.5 97t101 70t119 42.5t131.5 14.5q131 0 244.5 -52t199.5 -154q44 -52 78 -116t57 -146q132 100 274.5 184.5t281.5 142.5
q103 42 216.5 70t232.5 30zM1230 277q115 112 244.5 228t271.5 223q-23 81 -57 146.5t-77 116.5q-78 94 -186 144.5t-233 50.5q-59 0 -116 -14t-108.5 -42.5t-95.5 -70.5t-75 -98h1q-2 -6 -5 -13t-6 -13q47 -6 89.5 -16t84 -24.5t82.5 -33t85 -41.5l-4 -9q-46 19 -88.5 34.5
t-84.5 26t-86 17.5t-92 10q-7 -23 -11 -46.5t-4 -50.5q0 -48 18 -97.5t50 -87.5q24 -26 56 -46.5t67.5 -34.5t73.5 -21.5t75 -7.5q39 0 70 3.5t59.5 11t56.5 18.5t60 25l5 -9q-32 -21 -61 -37t-59.5 -27t-65.5 -17t-80 -6q-83 0 -159.5 24.5t-138.5 86.5q-38 45 -60.5 100
t-22.5 119q0 26 3.5 50.5t10.5 50.5q-66 -2 -124.5 -13.5t-124.5 -38.5q-86 -35 -162.5 -94.5t-134.5 -137.5t-91.5 -170.5t-33.5 -192.5q0 -102 34.5 -179t94 -129.5t138 -79t167.5 -26.5q77 0 148 18.5t136.5 50t127 74t119 91t112 101t107.5 103.5zM1783 428v35t-2 34
q-55 -78 -101.5 -158t-80.5 -158t-53.5 -152.5t-19.5 -140.5q0 -68 37 -68q25 0 47.5 17.5t41 43t32 52.5t21.5 47q27 67 45.5 150t26.5 176q3 32 4 62.5t2 59.5zM1775 694q5 -26 9.5 -51.5t8.5 -52.5q62 70 127.5 136t131 123.5t129.5 105t122 82.5q-143 -61 -275 -149
t-253 -194zM1760 1190q11 12 23 25t25.5 23.5t28 17.5t31.5 7q30 0 68 -25q23 -14 43 -21.5t36 -7.5q20 0 35 13.5t25 37.5l17 -8q-16 -38 -46.5 -66t-70.5 -28q-36 0 -71 22q-26 17 -43.5 25.5t-30.5 8.5q-17 0 -31 -12.5t-29 -26.5h1l-16 -15l-8 16z" />
    <glyph glyph-name="Adieresis" unicode="&#xc4;" horiz-adv-x="1919" 
d="M2767 1168q108 0 209.5 -30t190.5 -96l-2 -16q-90 66 -192 94.5t-206 28.5q-49 0 -104.5 -8t-112 -22.5t-111.5 -35.5t-104 -47q-64 -38 -133.5 -92.5t-139.5 -121.5t-137.5 -143.5t-125.5 -157.5q2 -22 2 -46v-47q0 -30 -1.5 -60.5t-3.5 -62.5q-8 -96 -27 -181t-46 -151
q-14 -34 -34 -70.5t-47.5 -66.5t-62 -49t-77.5 -19q-48 0 -68.5 28t-20.5 74q0 72 29 158.5t79 178t115.5 184.5t139.5 180q-4 29 -8 56t-10 53q-72 -64 -138.5 -132t-127.5 -138q-66 -76 -132 -150t-136 -140t-146 -122t-162 -97t-184.5 -64t-213.5 -23q-104 0 -199 24.5
t-167 78.5t-114.5 139.5t-42.5 208.5q0 103 34 201t94 181t143.5 148t182.5 102q63 23 120 33t119 10h21t22 -1q4 8 9.5 20t13.5 26q32 55 77.5 97t101 70t119 42.5t131.5 14.5q131 0 244.5 -52t199.5 -154q44 -52 78 -116t57 -146q132 100 274.5 184.5t281.5 142.5
q103 42 216.5 70t232.5 30zM1230 277q115 112 244.5 228t271.5 223q-23 81 -57 146.5t-77 116.5q-78 94 -186 144.5t-233 50.5q-59 0 -116 -14t-108.5 -42.5t-95.5 -70.5t-75 -98h1q-2 -6 -5 -13t-6 -13q47 -6 89.5 -16t84 -24.5t82.5 -33t85 -41.5l-4 -9q-46 19 -88.5 34.5
t-84.5 26t-86 17.5t-92 10q-7 -23 -11 -46.5t-4 -50.5q0 -48 18 -97.5t50 -87.5q24 -26 56 -46.5t67.5 -34.5t73.5 -21.5t75 -7.5q39 0 70 3.5t59.5 11t56.5 18.5t60 25l5 -9q-32 -21 -61 -37t-59.5 -27t-65.5 -17t-80 -6q-83 0 -159.5 24.5t-138.5 86.5q-38 45 -60.5 100
t-22.5 119q0 26 3.5 50.5t10.5 50.5q-66 -2 -124.5 -13.5t-124.5 -38.5q-86 -35 -162.5 -94.5t-134.5 -137.5t-91.5 -170.5t-33.5 -192.5q0 -102 34.5 -179t94 -129.5t138 -79t167.5 -26.5q77 0 148 18.5t136.5 50t127 74t119 91t112 101t107.5 103.5zM1783 428v35t-2 34
q-55 -78 -101.5 -158t-80.5 -158t-53.5 -152.5t-19.5 -140.5q0 -68 37 -68q25 0 47.5 17.5t41 43t32 52.5t21.5 47q27 67 45.5 150t26.5 176q3 32 4 62.5t2 59.5zM1775 694q5 -26 9.5 -51.5t8.5 -52.5q62 70 127.5 136t131 123.5t129.5 105t122 82.5q-143 -61 -275 -149
t-253 -194zM2009 1251q21 0 35.5 -13t14.5 -33t-14.5 -33.5t-35.5 -13.5t-35.5 13.5t-14.5 33.5t14.5 33t35.5 13zM1829 1251q21 0 35.5 -13t14.5 -33t-14.5 -33.5t-35.5 -13.5t-35.5 13.5t-14.5 33.5t14.5 33t35.5 13z" />
    <glyph glyph-name="Aring" unicode="&#xc5;" horiz-adv-x="1919" 
d="M2767 1168q108 0 209.5 -30t190.5 -96l-2 -16q-90 66 -192 94.5t-206 28.5q-49 0 -104.5 -8t-112 -22.5t-111.5 -35.5t-104 -47q-64 -38 -133.5 -92.5t-139.5 -121.5t-137.5 -143.5t-125.5 -157.5q2 -22 2 -46v-47q0 -30 -1.5 -60.5t-3.5 -62.5q-8 -96 -27 -181t-46 -151
q-14 -34 -34 -70.5t-47.5 -66.5t-62 -49t-77.5 -19q-48 0 -68.5 28t-20.5 74q0 72 29 158.5t79 178t115.5 184.5t139.5 180q-4 29 -8 56t-10 53q-72 -64 -138.5 -132t-127.5 -138q-66 -76 -132 -150t-136 -140t-146 -122t-162 -97t-184.5 -64t-213.5 -23q-104 0 -199 24.5
t-167 78.5t-114.5 139.5t-42.5 208.5q0 103 34 201t94 181t143.5 148t182.5 102q63 23 120 33t119 10h21t22 -1q4 8 9.5 20t13.5 26q32 55 77.5 97t101 70t119 42.5t131.5 14.5q131 0 244.5 -52t199.5 -154q44 -52 78 -116t57 -146q132 100 274.5 184.5t281.5 142.5
q103 42 216.5 70t232.5 30zM1230 277q115 112 244.5 228t271.5 223q-23 81 -57 146.5t-77 116.5q-78 94 -186 144.5t-233 50.5q-59 0 -116 -14t-108.5 -42.5t-95.5 -70.5t-75 -98h1q-2 -6 -5 -13t-6 -13q47 -6 89.5 -16t84 -24.5t82.5 -33t85 -41.5l-4 -9q-46 19 -88.5 34.5
t-84.5 26t-86 17.5t-92 10q-7 -23 -11 -46.5t-4 -50.5q0 -48 18 -97.5t50 -87.5q24 -26 56 -46.5t67.5 -34.5t73.5 -21.5t75 -7.5q39 0 70 3.5t59.5 11t56.5 18.5t60 25l5 -9q-32 -21 -61 -37t-59.5 -27t-65.5 -17t-80 -6q-83 0 -159.5 24.5t-138.5 86.5q-38 45 -60.5 100
t-22.5 119q0 26 3.5 50.5t10.5 50.5q-66 -2 -124.5 -13.5t-124.5 -38.5q-86 -35 -162.5 -94.5t-134.5 -137.5t-91.5 -170.5t-33.5 -192.5q0 -102 34.5 -179t94 -129.5t138 -79t167.5 -26.5q77 0 148 18.5t136.5 50t127 74t119 91t112 101t107.5 103.5zM1783 428v35t-2 34
q-55 -78 -101.5 -158t-80.5 -158t-53.5 -152.5t-19.5 -140.5q0 -68 37 -68q25 0 47.5 17.5t41 43t32 52.5t21.5 47q27 67 45.5 150t26.5 176q3 32 4 62.5t2 59.5zM1775 694q5 -26 9.5 -51.5t8.5 -52.5q62 70 127.5 136t131 123.5t129.5 105t122 82.5q-143 -61 -275 -149
t-253 -194zM1853 1224q0 29 19 47t47 18q32 0 49.5 -19.5t17.5 -45.5t-19.5 -46t-47.5 -20q-26 0 -46 17.5t-20 48.5zM1918 1199q11 0 18 7.5t7 17.5q0 11 -8 18t-17 7t-16 -7.5t-7 -17.5t6.5 -17.5t16.5 -7.5z" />
    <glyph glyph-name="AE" unicode="&#xc6;" horiz-adv-x="2832" 
d="M2767 1168q108 0 209.5 -30t190.5 -96l-2 -16q-90 66 -192 94.5t-206 28.5q-49 0 -104.5 -8t-112 -22.5t-111.5 -35.5t-104 -47q-64 -38 -133.5 -92.5t-139.5 -121.5t-137.5 -143.5t-125.5 -157.5q2 -22 2 -46v-47q0 -30 -1.5 -60.5t-3.5 -62.5q-1 -9 0 -9t-1 -9
q52 61 121 113.5t145 93.5t155 70.5t151 44.5q-19 31 -19 70q0 24 8.5 51t24.5 54t39 53t53 49q48 33 95 54.5t92.5 34t89.5 17t85 4.5q62 0 109.5 -15t80 -39.5t49 -55t16.5 -61.5q0 -27 -13.5 -54t-41 -48.5t-69 -35t-96.5 -13.5q-58 0 -107 14t-93 38t-84 56t-80 67
q-37 -42 -54 -86.5t-18 -85.5q0 -15 2 -29t7 -27q30 3 57 3q10 0 28.5 -2t37 -7.5t32.5 -15.5t14 -26q0 -12 -6.5 -19.5t-16.5 -12t-21.5 -6t-21.5 -1.5q-60 0 -101.5 15.5t-64.5 42.5q-65 -15 -134 -44t-134 -70t-123 -93t-101.5 -113.5t-69 -131.5t-25.5 -146
q0 -51 13.5 -86.5t38.5 -57.5q6 48 19.5 91.5t33.5 87.5q47 98 111.5 177t153.5 144q78 57 148 83q21 8 48.5 16t57.5 14.5t62 10.5t64 4q37 0 75.5 -7.5t69 -25t50 -47.5t19.5 -75q0 -53 -22 -101.5t-52 -93.5q-23 -33 -54 -67t-68.5 -66.5t-80 -62.5t-87.5 -55
q-85 -45 -178 -71.5t-191 -26.5q-29 0 -59 3t-56 9q-1 -5 -1 -14.5v-14.5q0 -56 19 -113t57 -102q32 -35 68 -58t82 -43l-3 -10q-52 12 -92.5 30t-82.5 53q-57 49 -85 116.5t-30 147.5v26q-46 17 -83.5 45.5t-60.5 66.5q-15 -29 -34.5 -56t-44 -49t-53.5 -35t-63 -13
q-48 0 -68.5 28t-20.5 74q0 72 29 158.5t79 178t115.5 184.5t139.5 180q-4 29 -8 56t-10 53q-72 -64 -138.5 -132t-127.5 -138q-66 -76 -132 -150t-136 -140t-146 -122t-162 -97t-184.5 -64t-213.5 -23q-104 0 -199 24.5t-167 78.5t-114.5 139.5t-42.5 208.5q0 103 34 201
t94 181t143.5 148t182.5 102q63 23 120 33t119 10h21t22 -1q4 8 9.5 20t13.5 26q32 55 77.5 97t101 70t119 42.5t131.5 14.5q131 0 244.5 -52t199.5 -154q44 -52 78 -116t57 -146q132 100 274.5 184.5t281.5 142.5q103 42 216.5 70t232.5 30zM1230 277q115 112 244.5 228
t271.5 223q-23 81 -57 146.5t-77 116.5q-78 94 -186 144.5t-233 50.5q-59 0 -116 -14t-108.5 -42.5t-95.5 -70.5t-75 -98h1q-2 -6 -5 -13t-6 -13q47 -6 89.5 -16t84 -24.5t82.5 -33t85 -41.5l-4 -9q-46 19 -88.5 34.5t-84.5 26t-86 17.5t-92 10q-7 -23 -11 -46.5t-4 -50.5
q0 -48 18 -97.5t50 -87.5q24 -26 56 -46.5t67.5 -34.5t73.5 -21.5t75 -7.5q39 0 70 3.5t59.5 11t56.5 18.5t60 25l5 -9q-32 -21 -61 -37t-59.5 -27t-65.5 -17t-80 -6q-83 0 -159.5 24.5t-138.5 86.5q-38 45 -60.5 100t-22.5 119q0 26 3.5 50.5t10.5 50.5
q-66 -2 -124.5 -13.5t-124.5 -38.5q-86 -35 -162.5 -94.5t-134.5 -137.5t-91.5 -170.5t-33.5 -192.5q0 -102 34.5 -179t94 -129.5t138 -79t167.5 -26.5q77 0 148 18.5t136.5 50t127 74t119 91t112 101t107.5 103.5zM1915 -168q-2 -5 -2.5 -9.5t-1.5 -9.5q27 -8 55 -11.5
t60 -3.5q181 0 359 95q91 49 163.5 113.5t119.5 132.5q27 39 48.5 85.5t21.5 98.5q0 34 -15 59t-39 41t-54.5 23.5t-62.5 7.5q-31 0 -63.5 -5.5t-63.5 -15t-60 -21.5t-53 -25q-29 -17 -61 -38.5t-64 -48.5q-39 -33 -72 -67t-61.5 -70.5t-53 -77t-46.5 -87.5q-20 -43 -33 -82
t-21 -84zM2873 692q50 2 87 14t61.5 30.5t36.5 42t12 47.5q0 28 -15 55t-45 48.5t-74.5 34.5t-102.5 13q-77 0 -152 -21t-136 -71q-5 -4 -10 -8.5t-11 -10.5l-2 -2l-2 -2q39 -35 78.5 -65.5t82 -53.5t89.5 -37t103 -14zM1783 428v35t-2 34q-55 -78 -101.5 -158t-80.5 -158
t-53.5 -152.5t-19.5 -140.5q0 -68 37 -68q20 0 38.5 11.5t34.5 29t29.5 39t23.5 41.5q-11 30 -11 65q0 66 26 130t68 121q1 13 2.5 24.5t2.5 24.5q3 32 4 62.5t2 59.5zM1775 694q5 -26 9.5 -51.5t8.5 -52.5q62 70 127.5 136t131 123.5t129.5 105t122 82.5
q-143 -61 -275 -149t-253 -194zM2500 605h-24t-25 -2q14 -23 37.5 -36.5t58.5 -13.5q4 0 12 0.5t15.5 2.5t13 6t5.5 10q0 9 -11.5 15.5t-27 10.5t-31 5.5t-23.5 1.5z" />
    <glyph glyph-name="Ccedilla" unicode="&#xc7;" horiz-adv-x="1177" 
d="M333 -148q-75 1 -132.5 22t-96 57.5t-58 86t-19.5 109.5q0 66 27 134.5t68.5 134t92 124.5t97.5 106q-55 26 -80 65t-25 86q0 58 36.5 121.5t101 120t152.5 100.5t190 64v-14q-91 -18 -170.5 -59t-138 -95t-92.5 -115t-34 -119q0 -41 18.5 -76.5t63.5 -58.5
q99 92 218.5 173.5t241.5 140.5q139 66 277 103.5t261 37.5q84 0 119 -24.5t35 -64.5q0 -33 -25 -74t-72.5 -84t-116 -85t-154.5 -78q-57 -24 -123.5 -43.5t-137 -33.5t-143 -22t-142.5 -8q-45 0 -87 2.5t-81 10.5q-44 -49 -92 -113.5t-88.5 -136.5t-67 -146.5t-26.5 -143.5
q0 -40 9.5 -73.5t34.5 -58t67 -38.5t108 -14q70 0 141.5 20.5t138 54.5t125.5 77t105 87q43 41 77 83.5t58 83t36.5 77t12.5 65.5q0 30 -16.5 46.5t-52.5 16.5q-51 0 -107 -15.5t-111.5 -43.5t-108 -67.5t-97.5 -87t-79 -101.5t-52 -112l-12 -1q6 64 34.5 122t73 108t101 91
t118 69.5t124 44t119.5 15.5q76 0 112 -30t36 -80q0 -35 -16.5 -76t-47 -85t-73 -88.5t-94.5 -85.5q-55 -43 -119.5 -80.5t-133.5 -65.5t-141.5 -45t-144.5 -18v-17q36 -4 62.5 -19.5t26.5 -50.5q0 -28 -20 -48.5t-49 -20.5q-26 0 -41.5 9.5t-15.5 17.5q0 15 18 15
q11 0 20 -6.5t19 -14.5l6 -4q13 1 23 9.5t10 23.5q0 24 -25 33t-56 11v62zM735 881q-86 -55 -165.5 -121.5t-149.5 -143.5q30 -6 59.5 -8.5t60.5 -2.5q65 0 134.5 12.5t140 33t139.5 47.5t134 57q75 36 141.5 74.5t117 75.5t80 69t29.5 56q0 23 -30 37.5t-96 14.5
q-145 0 -297.5 -53.5t-297.5 -147.5z" />
    <glyph glyph-name="Egrave" unicode="&#xc8;" horiz-adv-x="1613" 
d="M1616 996q62 0 109.5 -15t80 -39.5t49 -55t16.5 -61.5q0 -27 -13.5 -54t-41 -48.5t-69 -35t-96.5 -13.5q-58 0 -107 14t-93 38t-84 56t-80 67q-37 -42 -54 -86.5t-18 -85.5q0 -15 2 -29t7 -27q30 3 57 3q10 0 28.5 -2t37 -7.5t32.5 -15.5t14 -26q0 -12 -6.5 -19.5
t-16.5 -12t-21.5 -6t-21.5 -1.5q-60 0 -101.5 15.5t-64.5 42.5q-65 -15 -134 -44t-134 -70t-123 -93t-101.5 -113.5t-69 -131.5t-25.5 -146q0 -51 13.5 -86.5t38.5 -57.5q6 48 19.5 91.5t33.5 87.5q47 98 111.5 177t153.5 144q78 57 148 83q21 8 48.5 16t57.5 14.5t62 10.5
t64 4q37 0 75.5 -7.5t69 -25t50 -47.5t19.5 -75q0 -53 -22 -101.5t-52 -93.5q-23 -33 -54 -67t-68.5 -66.5t-80 -62.5t-87.5 -55q-85 -45 -178 -71.5t-191 -26.5q-29 0 -59 3t-56 9q-1 -5 -1 -14.5v-14.5q0 -56 19 -113t57 -102q32 -35 68 -58t82 -43l-3 -10
q-52 12 -92.5 30t-82.5 53q-57 49 -85 116.5t-30 147.5v26q-34 12 -63.5 30.5t-51.5 42.5t-35 55t-13 69q0 75 31 144.5t83 131.5t121 115.5t146 95.5t156 71.5t152 44.5q-19 31 -19 70q0 50 30 103t90 100q-57 51 -116.5 96t-124 79t-136.5 53.5t-154 19.5
q-72 0 -144 -14.5t-138.5 -43.5t-124 -71t-100 -96.5t-66.5 -121.5t-24 -145q0 -58 18 -106t53 -82t85 -53t115 -19q69 0 132.5 27.5t119.5 71.5l7 -8q-26 -27 -57 -50t-66 -40.5t-73.5 -27.5t-78.5 -10q-68 0 -124.5 21t-97 60t-63 95t-22.5 127q0 82 26.5 151.5t72 126
t107 99.5t131 72t143.5 43.5t145 14.5q87 0 161 -17t141.5 -49.5t133 -80.5t135.5 -110q8 5 14.5 10t14.5 10q70 46 154 64t168 18zM696 -168q-2 -5 -2.5 -9.5t-1.5 -9.5q27 -8 55 -11.5t60 -3.5q181 0 359 95q91 49 163.5 113.5t119.5 132.5q27 39 48.5 85.5t21.5 98.5
q0 34 -15 59t-39 41t-54.5 23.5t-62.5 7.5q-31 0 -63.5 -5.5t-63.5 -15t-60 -21.5t-53 -25q-29 -17 -61 -38.5t-64 -48.5q-39 -33 -72 -67t-61.5 -70.5t-53 -77t-46.5 -87.5q-20 -43 -33 -82t-21 -84zM1654 692q50 2 87 14t61.5 30.5t36.5 42t12 47.5q0 28 -15 55t-45 48.5
t-74.5 34.5t-102.5 13q-77 0 -152 -21t-136 -71q-5 -4 -10 -8.5t-11 -10.5l-2 -2l-2 -2q39 -35 78.5 -65.5t82 -53.5t89.5 -37t103 -14zM1580 1330q22 -29 41 -52t42 -49l53 -63l-10 -10l-80 55l-98 67q-15 12 -15 27q0 14 11.5 26.5t28.5 12.5q8 0 15 -3t12 -11zM1281 605
h-24t-25 -2q14 -23 37.5 -36.5t58.5 -13.5q4 0 12 0.5t15.5 2.5t13 6t5.5 10q0 9 -11.5 15.5t-27 10.5t-31 5.5t-23.5 1.5z" />
    <glyph glyph-name="Eacute" unicode="&#xc9;" horiz-adv-x="1613" 
d="M1616 996q62 0 109.5 -15t80 -39.5t49 -55t16.5 -61.5q0 -27 -13.5 -54t-41 -48.5t-69 -35t-96.5 -13.5q-58 0 -107 14t-93 38t-84 56t-80 67q-37 -42 -54 -86.5t-18 -85.5q0 -15 2 -29t7 -27q30 3 57 3q10 0 28.5 -2t37 -7.5t32.5 -15.5t14 -26q0 -12 -6.5 -19.5
t-16.5 -12t-21.5 -6t-21.5 -1.5q-60 0 -101.5 15.5t-64.5 42.5q-65 -15 -134 -44t-134 -70t-123 -93t-101.5 -113.5t-69 -131.5t-25.5 -146q0 -51 13.5 -86.5t38.5 -57.5q6 48 19.5 91.5t33.5 87.5q47 98 111.5 177t153.5 144q78 57 148 83q21 8 48.5 16t57.5 14.5t62 10.5
t64 4q37 0 75.5 -7.5t69 -25t50 -47.5t19.5 -75q0 -53 -22 -101.5t-52 -93.5q-23 -33 -54 -67t-68.5 -66.5t-80 -62.5t-87.5 -55q-85 -45 -178 -71.5t-191 -26.5q-29 0 -59 3t-56 9q-1 -5 -1 -14.5v-14.5q0 -56 19 -113t57 -102q32 -35 68 -58t82 -43l-3 -10
q-52 12 -92.5 30t-82.5 53q-57 49 -85 116.5t-30 147.5v26q-34 12 -63.5 30.5t-51.5 42.5t-35 55t-13 69q0 75 31 144.5t83 131.5t121 115.5t146 95.5t156 71.5t152 44.5q-19 31 -19 70q0 50 30 103t90 100q-57 51 -116.5 96t-124 79t-136.5 53.5t-154 19.5
q-72 0 -144 -14.5t-138.5 -43.5t-124 -71t-100 -96.5t-66.5 -121.5t-24 -145q0 -58 18 -106t53 -82t85 -53t115 -19q69 0 132.5 27.5t119.5 71.5l7 -8q-26 -27 -57 -50t-66 -40.5t-73.5 -27.5t-78.5 -10q-68 0 -124.5 21t-97 60t-63 95t-22.5 127q0 82 26.5 151.5t72 126
t107 99.5t131 72t143.5 43.5t145 14.5q87 0 161 -17t141.5 -49.5t133 -80.5t135.5 -110q8 5 14.5 10t14.5 10q70 46 154 64t168 18zM696 -168q-2 -5 -2.5 -9.5t-1.5 -9.5q27 -8 55 -11.5t60 -3.5q181 0 359 95q91 49 163.5 113.5t119.5 132.5q27 39 48.5 85.5t21.5 98.5
q0 34 -15 59t-39 41t-54.5 23.5t-62.5 7.5q-31 0 -63.5 -5.5t-63.5 -15t-60 -21.5t-53 -25q-29 -17 -61 -38.5t-64 -48.5q-39 -33 -72 -67t-61.5 -70.5t-53 -77t-46.5 -87.5q-20 -43 -33 -82t-21 -84zM1654 692q50 2 87 14t61.5 30.5t36.5 42t12 47.5q0 28 -15 55t-45 48.5
t-74.5 34.5t-102.5 13q-77 0 -152 -21t-136 -71q-5 -4 -10 -8.5t-11 -10.5l-2 -2l-2 -2q39 -35 78.5 -65.5t82 -53.5t89.5 -37t103 -14zM1709 1294q5 8 12 11t15 3q17 0 28.5 -12.5t11.5 -26.5q0 -15 -15 -27l-98 -67l-81 -54l-9 9l53 63q23 26 42 49t41 52zM1281 605h-24
t-25 -2q14 -23 37.5 -36.5t58.5 -13.5q4 0 12 0.5t15.5 2.5t13 6t5.5 10q0 9 -11.5 15.5t-27 10.5t-31 5.5t-23.5 1.5z" />
    <glyph glyph-name="Ecircumflex" unicode="&#xca;" horiz-adv-x="1613" 
d="M1616 996q62 0 109.5 -15t80 -39.5t49 -55t16.5 -61.5q0 -27 -13.5 -54t-41 -48.5t-69 -35t-96.5 -13.5q-58 0 -107 14t-93 38t-84 56t-80 67q-37 -42 -54 -86.5t-18 -85.5q0 -15 2 -29t7 -27q30 3 57 3q10 0 28.5 -2t37 -7.5t32.5 -15.5t14 -26q0 -12 -6.5 -19.5
t-16.5 -12t-21.5 -6t-21.5 -1.5q-60 0 -101.5 15.5t-64.5 42.5q-65 -15 -134 -44t-134 -70t-123 -93t-101.5 -113.5t-69 -131.5t-25.5 -146q0 -51 13.5 -86.5t38.5 -57.5q6 48 19.5 91.5t33.5 87.5q47 98 111.5 177t153.5 144q78 57 148 83q21 8 48.5 16t57.5 14.5t62 10.5
t64 4q37 0 75.5 -7.5t69 -25t50 -47.5t19.5 -75q0 -53 -22 -101.5t-52 -93.5q-23 -33 -54 -67t-68.5 -66.5t-80 -62.5t-87.5 -55q-85 -45 -178 -71.5t-191 -26.5q-29 0 -59 3t-56 9q-1 -5 -1 -14.5v-14.5q0 -56 19 -113t57 -102q32 -35 68 -58t82 -43l-3 -10
q-52 12 -92.5 30t-82.5 53q-57 49 -85 116.5t-30 147.5v26q-34 12 -63.5 30.5t-51.5 42.5t-35 55t-13 69q0 75 31 144.5t83 131.5t121 115.5t146 95.5t156 71.5t152 44.5q-19 31 -19 70q0 50 30 103t90 100q-57 51 -116.5 96t-124 79t-136.5 53.5t-154 19.5
q-72 0 -144 -14.5t-138.5 -43.5t-124 -71t-100 -96.5t-66.5 -121.5t-24 -145q0 -58 18 -106t53 -82t85 -53t115 -19q69 0 132.5 27.5t119.5 71.5l7 -8q-26 -27 -57 -50t-66 -40.5t-73.5 -27.5t-78.5 -10q-68 0 -124.5 21t-97 60t-63 95t-22.5 127q0 82 26.5 151.5t72 126
t107 99.5t131 72t143.5 43.5t145 14.5q87 0 161 -17t141.5 -49.5t133 -80.5t135.5 -110q8 5 14.5 10t14.5 10q70 46 154 64t168 18zM696 -168q-2 -5 -2.5 -9.5t-1.5 -9.5q27 -8 55 -11.5t60 -3.5q181 0 359 95q91 49 163.5 113.5t119.5 132.5q27 39 48.5 85.5t21.5 98.5
q0 34 -15 59t-39 41t-54.5 23.5t-62.5 7.5q-31 0 -63.5 -5.5t-63.5 -15t-60 -21.5t-53 -25q-29 -17 -61 -38.5t-64 -48.5q-39 -33 -72 -67t-61.5 -70.5t-53 -77t-46.5 -87.5q-20 -43 -33 -82t-21 -84zM1654 692q50 2 87 14t61.5 30.5t36.5 42t12 47.5q0 28 -15 55t-45 48.5
t-74.5 34.5t-102.5 13q-77 0 -152 -21t-136 -71q-5 -4 -10 -8.5t-11 -10.5l-2 -2l-2 -2q39 -35 78.5 -65.5t82 -53.5t89.5 -37t103 -14zM1749 1228q5 -8 5 -17q0 -14 -12 -25.5t-28 -11.5q-9 0 -16 4.5t-9 15.5q-4 16 -8.5 36.5t-11.5 45.5l-11 41l-14 -17.5t-14 -15.5
q-26 -29 -46.5 -54t-44.5 -57q-12 -15 -27 -15q-14 0 -27 12t-13 28q0 15 15 27q23 16 48 33t48 32.5t42 29t31 21.5h-1q1 1 3 2q4 2 6 2q4 0 7 -6v1l25 -36q11 -17 25 -36t28 -40zM1281 605h-24t-25 -2q14 -23 37.5 -36.5t58.5 -13.5q4 0 12 0.5t15.5 2.5t13 6t5.5 10
q0 9 -11.5 15.5t-27 10.5t-31 5.5t-23.5 1.5z" />
    <glyph glyph-name="Edieresis" unicode="&#xcb;" horiz-adv-x="1613" 
d="M1616 996q62 0 109.5 -15t80 -39.5t49 -55t16.5 -61.5q0 -27 -13.5 -54t-41 -48.5t-69 -35t-96.5 -13.5q-58 0 -107 14t-93 38t-84 56t-80 67q-37 -42 -54 -86.5t-18 -85.5q0 -15 2 -29t7 -27q30 3 57 3q10 0 28.5 -2t37 -7.5t32.5 -15.5t14 -26q0 -12 -6.5 -19.5
t-16.5 -12t-21.5 -6t-21.5 -1.5q-60 0 -101.5 15.5t-64.5 42.5q-65 -15 -134 -44t-134 -70t-123 -93t-101.5 -113.5t-69 -131.5t-25.5 -146q0 -51 13.5 -86.5t38.5 -57.5q6 48 19.5 91.5t33.5 87.5q47 98 111.5 177t153.5 144q78 57 148 83q21 8 48.5 16t57.5 14.5t62 10.5
t64 4q37 0 75.5 -7.5t69 -25t50 -47.5t19.5 -75q0 -53 -22 -101.5t-52 -93.5q-23 -33 -54 -67t-68.5 -66.5t-80 -62.5t-87.5 -55q-85 -45 -178 -71.5t-191 -26.5q-29 0 -59 3t-56 9q-1 -5 -1 -14.5v-14.5q0 -56 19 -113t57 -102q32 -35 68 -58t82 -43l-3 -10
q-52 12 -92.5 30t-82.5 53q-57 49 -85 116.5t-30 147.5v26q-34 12 -63.5 30.5t-51.5 42.5t-35 55t-13 69q0 75 31 144.5t83 131.5t121 115.5t146 95.5t156 71.5t152 44.5q-19 31 -19 70q0 50 30 103t90 100q-57 51 -116.5 96t-124 79t-136.5 53.5t-154 19.5
q-72 0 -144 -14.5t-138.5 -43.5t-124 -71t-100 -96.5t-66.5 -121.5t-24 -145q0 -58 18 -106t53 -82t85 -53t115 -19q69 0 132.5 27.5t119.5 71.5l7 -8q-26 -27 -57 -50t-66 -40.5t-73.5 -27.5t-78.5 -10q-68 0 -124.5 21t-97 60t-63 95t-22.5 127q0 82 26.5 151.5t72 126
t107 99.5t131 72t143.5 43.5t145 14.5q87 0 161 -17t141.5 -49.5t133 -80.5t135.5 -110q8 5 14.5 10t14.5 10q70 46 154 64t168 18zM696 -168q-2 -5 -2.5 -9.5t-1.5 -9.5q27 -8 55 -11.5t60 -3.5q181 0 359 95q91 49 163.5 113.5t119.5 132.5q27 39 48.5 85.5t21.5 98.5
q0 34 -15 59t-39 41t-54.5 23.5t-62.5 7.5q-31 0 -63.5 -5.5t-63.5 -15t-60 -21.5t-53 -25q-29 -17 -61 -38.5t-64 -48.5q-39 -33 -72 -67t-61.5 -70.5t-53 -77t-46.5 -87.5q-20 -43 -33 -82t-21 -84zM1654 692q50 2 87 14t61.5 30.5t36.5 42t12 47.5q0 28 -15 55t-45 48.5
t-74.5 34.5t-102.5 13q-77 0 -152 -21t-136 -71q-5 -4 -10 -8.5t-11 -10.5l-2 -2l-2 -2q39 -35 78.5 -65.5t82 -53.5t89.5 -37t103 -14zM1703 1251q21 0 35.5 -13t14.5 -33t-14.5 -33.5t-35.5 -13.5t-35.5 13.5t-14.5 33.5t14.5 33t35.5 13zM1523 1251q21 0 35.5 -13
t14.5 -33t-14.5 -33.5t-35.5 -13.5t-35.5 13.5t-14.5 33.5t14.5 33t35.5 13zM1281 605h-24t-25 -2q14 -23 37.5 -36.5t58.5 -13.5q4 0 12 0.5t15.5 2.5t13 6t5.5 10q0 9 -11.5 15.5t-27 10.5t-31 5.5t-23.5 1.5z" />
    <glyph glyph-name="Igrave" unicode="&#xcc;" horiz-adv-x="1080" 
d="M1642 1046q17 0 26 -5.5t9 -11.5q0 -8 -13.5 -17t-39.5 -14q-28 -6 -58 -8.5t-53 -3.5q-95 -52 -169.5 -122.5t-135 -150.5t-109.5 -165.5t-94 -168.5q-40 -76 -82.5 -150.5t-87.5 -137.5q-48 -62 -107 -117t-127.5 -96.5t-144 -66t-155.5 -24.5q-62 0 -123 22t-107 72
q-38 45 -57 101t-19 113t15.5 115t44.5 111.5t69.5 100.5t90.5 81.5t107.5 54.5t121.5 20q61 0 110 -14.5t101 -51.5l-5 -8q-39 17 -73.5 24.5t-71.5 7.5q-89 0 -176 -35.5t-156 -98t-111.5 -146t-42.5 -179.5q0 -51 16.5 -98.5t50.5 -86.5q18 -18 41 -33.5t48.5 -27
t52 -17.5t52.5 -6q62 0 121 28.5t112.5 71.5t100 93.5t83.5 94.5q29 34 66 86t76 109q58 84 129.5 181.5t152 192.5t168.5 179t181 141q-45 -2 -86.5 -5t-83.5 -9.5t-87 -17.5t-97 -27q-34 -12 -73 -29.5t-78.5 -41t-76 -52t-64 -62t-44.5 -72t-17 -80.5q0 -48 30.5 -80.5
t85.5 -34.5v-14q-31 0 -57.5 11.5t-46 32t-30.5 48.5t-11 62q0 70 33.5 128.5t86.5 104.5t118.5 78.5t129.5 49.5q83 22 164 26t165 4h74q29 17 66 29t71 12zM1453 1301q22 -29 41 -52t42 -49l53 -63l-10 -10l-80 55l-98 67q-15 12 -15 27q0 14 11.5 26.5t28.5 12.5
q8 0 15 -3t12 -11z" />
    <glyph glyph-name="Iacute" unicode="&#xcd;" horiz-adv-x="1080" 
d="M1642 1046q17 0 26 -5.5t9 -11.5q0 -8 -13.5 -17t-39.5 -14q-28 -6 -58 -8.5t-53 -3.5q-95 -52 -169.5 -122.5t-135 -150.5t-109.5 -165.5t-94 -168.5q-40 -76 -82.5 -150.5t-87.5 -137.5q-48 -62 -107 -117t-127.5 -96.5t-144 -66t-155.5 -24.5q-62 0 -123 22t-107 72
q-38 45 -57 101t-19 113t15.5 115t44.5 111.5t69.5 100.5t90.5 81.5t107.5 54.5t121.5 20q61 0 110 -14.5t101 -51.5l-5 -8q-39 17 -73.5 24.5t-71.5 7.5q-89 0 -176 -35.5t-156 -98t-111.5 -146t-42.5 -179.5q0 -51 16.5 -98.5t50.5 -86.5q18 -18 41 -33.5t48.5 -27
t52 -17.5t52.5 -6q62 0 121 28.5t112.5 71.5t100 93.5t83.5 94.5q29 34 66 86t76 109q58 84 129.5 181.5t152 192.5t168.5 179t181 141q-45 -2 -86.5 -5t-83.5 -9.5t-87 -17.5t-97 -27q-34 -12 -73 -29.5t-78.5 -41t-76 -52t-64 -62t-44.5 -72t-17 -80.5q0 -48 30.5 -80.5
t85.5 -34.5v-14q-31 0 -57.5 11.5t-46 32t-30.5 48.5t-11 62q0 70 33.5 128.5t86.5 104.5t118.5 78.5t129.5 49.5q83 22 164 26t165 4h74q29 17 66 29t71 12zM1589 1301q5 8 12 11t15 3q17 0 28.5 -12.5t11.5 -26.5q0 -15 -15 -27l-98 -67l-81 -54l-9 9l53 63q23 26 42 49
t41 52z" />
    <glyph glyph-name="Icircumflex" unicode="&#xce;" horiz-adv-x="1080" 
d="M1642 1046q17 0 26 -5.5t9 -11.5q0 -8 -13.5 -17t-39.5 -14q-28 -6 -58 -8.5t-53 -3.5q-95 -52 -169.5 -122.5t-135 -150.5t-109.5 -165.5t-94 -168.5q-40 -76 -82.5 -150.5t-87.5 -137.5q-48 -62 -107 -117t-127.5 -96.5t-144 -66t-155.5 -24.5q-62 0 -123 22t-107 72
q-38 45 -57 101t-19 113t15.5 115t44.5 111.5t69.5 100.5t90.5 81.5t107.5 54.5t121.5 20q61 0 110 -14.5t101 -51.5l-5 -8q-39 17 -73.5 24.5t-71.5 7.5q-89 0 -176 -35.5t-156 -98t-111.5 -146t-42.5 -179.5q0 -51 16.5 -98.5t50.5 -86.5q18 -18 41 -33.5t48.5 -27
t52 -17.5t52.5 -6q62 0 121 28.5t112.5 71.5t100 93.5t83.5 94.5q29 34 66 86t76 109q58 84 129.5 181.5t152 192.5t168.5 179t181 141q-45 -2 -86.5 -5t-83.5 -9.5t-87 -17.5t-97 -27q-34 -12 -73 -29.5t-78.5 -41t-76 -52t-64 -62t-44.5 -72t-17 -80.5q0 -48 30.5 -80.5
t85.5 -34.5v-14q-31 0 -57.5 11.5t-46 32t-30.5 48.5t-11 62q0 70 33.5 128.5t86.5 104.5t118.5 78.5t129.5 49.5q83 22 164 26t165 4h74q29 17 66 29t71 12zM1630 1199q5 -8 5 -17q0 -14 -12 -25.5t-28 -11.5q-9 0 -16 4.5t-9 15.5q-4 16 -8.5 36.5t-11.5 45.5l-11 41
l-14 -17.5t-14 -15.5q-26 -29 -46.5 -54t-44.5 -57q-12 -15 -27 -15q-14 0 -27 12t-13 28q0 15 15 27q23 16 48 33t48 32.5t42 29t31 21.5h-1q1 1 3 2q4 2 6 2q4 0 7 -6v1l25 -36q11 -17 25 -36t28 -40z" />
    <glyph glyph-name="Idieresis" unicode="&#xcf;" horiz-adv-x="1080" 
d="M1642 1046q17 0 26 -5.5t9 -11.5q0 -8 -13.5 -17t-39.5 -14q-28 -6 -58 -8.5t-53 -3.5q-95 -52 -169.5 -122.5t-135 -150.5t-109.5 -165.5t-94 -168.5q-40 -76 -82.5 -150.5t-87.5 -137.5q-48 -62 -107 -117t-127.5 -96.5t-144 -66t-155.5 -24.5q-62 0 -123 22t-107 72
q-38 45 -57 101t-19 113t15.5 115t44.5 111.5t69.5 100.5t90.5 81.5t107.5 54.5t121.5 20q61 0 110 -14.5t101 -51.5l-5 -8q-39 17 -73.5 24.5t-71.5 7.5q-89 0 -176 -35.5t-156 -98t-111.5 -146t-42.5 -179.5q0 -51 16.5 -98.5t50.5 -86.5q18 -18 41 -33.5t48.5 -27
t52 -17.5t52.5 -6q62 0 121 28.5t112.5 71.5t100 93.5t83.5 94.5q29 34 66 86t76 109q58 84 129.5 181.5t152 192.5t168.5 179t181 141q-45 -2 -86.5 -5t-83.5 -9.5t-87 -17.5t-97 -27q-34 -12 -73 -29.5t-78.5 -41t-76 -52t-64 -62t-44.5 -72t-17 -80.5q0 -48 30.5 -80.5
t85.5 -34.5v-14q-31 0 -57.5 11.5t-46 32t-30.5 48.5t-11 62q0 70 33.5 128.5t86.5 104.5t118.5 78.5t129.5 49.5q83 22 164 26t165 4h74q29 17 66 29t71 12zM1417 1222q21 0 35.5 -13t14.5 -33t-14.5 -33.5t-35.5 -13.5t-35.5 13.5t-14.5 33.5t14.5 33t35.5 13zM1597 1222
q21 0 35.5 -13t14.5 -33t-14.5 -33.5t-35.5 -13.5t-35.5 13.5t-14.5 33.5t14.5 33t35.5 13z" />
    <glyph glyph-name="Ntilde" unicode="&#xd1;" horiz-adv-x="1925" 
d="M2844 1168q108 0 209 -30t191 -97l-10 -16q-88 66 -187.5 95t-202.5 29q-96 0 -190 -23t-182 -62q-129 -57 -227 -141.5t-176.5 -187t-143 -217.5t-124.5 -232q-34 -62 -87 -129t-121.5 -123t-150 -93t-172.5 -38v14q34 5 61.5 13.5t51.5 21.5q-5 31 -7 62.5t-2 66.5
q0 128 32.5 265.5t94.5 263.5q30 60 70.5 122.5t91 116.5t111 95.5t129.5 59.5q-70 -7 -135.5 -40.5t-125.5 -86t-115 -119.5t-105 -140.5t-95 -149.5t-85 -146l-20 -35l-14 -25q-63 -110 -132.5 -193.5t-153.5 -140t-187 -85.5t-232 -29q-102 0 -194 28t-161.5 84t-111 139
t-41.5 194q0 103 34.5 201t95.5 182.5t144 150.5t181 104q85 32 170 40q49 92 123.5 158.5t165 109t193 63t207.5 20.5q127 0 241.5 -25t212.5 -69q74 -33 146.5 -78.5t135.5 -97.5l19 -16l-8 -16q-16 5 -30 7.5t-27 2.5q-43 0 -86 -22t-83.5 -58t-78 -81.5t-69.5 -92
t-57 -91t-42 -77.5q-40 -80 -72.5 -163t-55.5 -162t-35.5 -150t-12.5 -127v-6q32 23 64 54.5t61 67t55.5 72.5t48.5 70q76 119 165.5 244.5t193 241t221 212.5t248.5 157q87 37 186.5 60t193.5 23zM1936 1025q20 0 40.5 -2t40.5 -6q-119 95 -261 159q-47 20 -99.5 36.5
t-107 28t-109.5 18t-108 6.5q-99 0 -194.5 -19t-180 -59t-155 -101t-118.5 -146h13q109 0 215 -31.5t218 -88.5l-4 -9q-97 40 -197 64.5t-207 24.5h-30.5t-29.5 -2q-20 -45 -33.5 -92.5t-13.5 -99.5q0 -66 22.5 -125t63 -102.5t97.5 -69t127 -25.5q174 0 278 146l8 -5
q-22 -39 -51.5 -72t-66 -57t-79 -37.5t-89.5 -13.5q-77 0 -144 24.5t-117 70.5t-78.5 113t-28.5 151q0 46 10.5 93.5t27.5 89.5q-30 -6 -61 -15t-66 -23q-82 -39 -158 -101t-134.5 -141t-94 -171t-35.5 -190q0 -85 30.5 -158.5t85 -128t130 -85.5t166.5 -31q94 0 178 30.5
t158.5 81.5t139 117t119.5 137q29 36 59.5 79t63.5 91q49 69 103 144t113.5 147t123 136.5t132 113t140.5 77t148 28.5zM2054 1190q11 12 23 25t25.5 23.5t28 17.5t31.5 7q30 0 68 -25q23 -14 43 -21.5t36 -7.5q20 0 35 13.5t25 37.5l17 -8q-16 -38 -46.5 -66t-70.5 -28
q-36 0 -71 22q-26 17 -43.5 25.5t-30.5 8.5q-17 0 -31 -12.5t-29 -26.5h1l-16 -15l-8 16z" />
    <glyph glyph-name="Ograve" unicode="&#xd2;" horiz-adv-x="1388" 
d="M1576 939q0 -27 -8.5 -53t-23 -49t-33 -43.5t-37.5 -37.5q-2 -46 -15 -98q-13 -53 -37 -114t-56 -125q-57 -108 -134 -215.5t-170 -199.5q-59 -59 -125.5 -113t-141 -95t-156 -66t-168.5 -25q-86 0 -148 21.5t-102.5 60t-60 92t-19.5 118.5t18.5 139t52.5 152t82.5 157.5
t109.5 155.5q-81 22 -142.5 52t-109.5 65q-82 62 -119.5 135.5t-37.5 146.5q0 69 24 127.5t67 100.5t102 66t129 24q83 0 156.5 -30t132.5 -82t101 -121.5t62 -148.5q60 39 126 72t135 57t138.5 37.5t137.5 13.5q42 0 89 -7.5t87 -27.5t66 -54.5t28 -87.5zM1441 662
q11 42 14 78q-46 -37 -109 -70t-141.5 -57.5t-173 -39.5t-204.5 -17q-45 -54 -83 -109t-72 -116q-32 -59 -56 -120.5t-33 -133.5l-10 1q-1 11 -1.5 21.5t-0.5 21.5q0 63 16 118.5t41 113.5q25 57 53.5 106t64.5 97q-19 0 -38.5 1t-36.5 3q-52 3 -99.5 8.5t-89.5 14.5
q-56 -78 -100 -158.5t-74.5 -158.5t-47 -151.5t-16.5 -137.5q0 -56 13.5 -102.5t41.5 -80t71.5 -52t104.5 -18.5q80 0 158 24t150.5 64.5t139.5 94t126 112.5q94 94 170.5 199.5t130.5 208.5q32 62 55 121.5t36 113.5zM164 733q47 -36 109.5 -65t143.5 -50q70 87 153.5 164
t178.5 140q-23 71 -63.5 135.5t-96 114t-125 79t-150.5 29.5q-60 0 -114 -19t-95.5 -55t-66 -88t-24.5 -118q0 -69 35.5 -138.5t114.5 -128.5zM1465 841q7 -25 9 -59q16 15 31 33t26.5 37.5t18.5 41t7 44.5q0 46 -22 76.5t-58 49t-81 26t-90 7.5q-68 0 -137.5 -16
t-137.5 -43.5t-132 -64.5t-120 -79q5 -32 7 -63.5t2 -66.5h-10q-3 30 -7 59t-11 57q-75 -59 -141.5 -130.5t-124.5 -149.5q42 -8 85.5 -13t91.5 -9q42 -3 89 -3l53 64q43 48 101.5 100t125.5 95t140 70.5t145 27.5q51 0 87 -21t53 -70zM842 575q109 3 202 19t170 42
t137.5 59t104.5 70q0 40 -10 71q-14 40 -44 57.5t-72 17.5q-40 0 -82.5 -15t-85.5 -40t-85.5 -57t-81 -67t-72.5 -70t-61 -65q-5 -6 -10 -10.5t-10 -11.5zM1355 1330q22 -29 41 -52t42 -49l53 -63l-10 -10l-80 55l-98 67q-15 12 -15 27q0 14 11.5 26.5t28.5 12.5q8 0 15 -3
t12 -11z" />
    <glyph glyph-name="Oacute" unicode="&#xd3;" horiz-adv-x="1372" 
d="M1576 979q0 -27 -8.5 -53t-23 -49t-33 -43.5t-37.5 -37.5q-2 -46 -15 -98q-13 -53 -37 -114t-56 -125q-57 -108 -134 -215.5t-170 -199.5q-59 -59 -125.5 -113t-141 -95t-156 -66t-168.5 -25q-86 0 -148 21.5t-102.5 60t-60 92t-19.5 118.5t18.5 139t52.5 152t82.5 157.5
t109.5 155.5q-81 22 -142.5 52t-109.5 65q-82 62 -119.5 135.5t-37.5 146.5q0 69 24 127.5t67 100.5t102 66t129 24q83 0 156.5 -30t132.5 -82t101 -121.5t62 -148.5q60 39 126 72t135 57t138.5 37.5t137.5 13.5q42 0 89 -7.5t87 -27.5t66 -54.5t28 -87.5zM1441 702
q11 42 14 78q-46 -37 -109 -70t-141.5 -57.5t-173 -39.5t-204.5 -17q-45 -54 -83 -109t-72 -116q-32 -59 -56 -120.5t-33 -133.5l-10 1q-1 11 -1.5 21.5t-0.5 21.5q0 63 16 118.5t41 113.5q25 57 53.5 106t64.5 97q-19 0 -38.5 1t-36.5 3q-52 3 -99.5 8.5t-89.5 14.5
q-56 -78 -100 -158.5t-74.5 -158.5t-47 -151.5t-16.5 -137.5q0 -56 13.5 -102.5t41.5 -80t71.5 -52t104.5 -18.5q80 0 158 24t150.5 64.5t139.5 94t126 112.5q94 94 170.5 199.5t130.5 208.5q32 62 55 121.5t36 113.5zM164 773q47 -36 109.5 -65t143.5 -50q70 87 153.5 164
t178.5 140q-23 71 -63.5 135.5t-96 114t-125 79t-150.5 29.5q-60 0 -114 -19t-95.5 -55t-66 -88t-24.5 -118q0 -69 35.5 -138.5t114.5 -128.5zM1465 881q7 -25 9 -59q16 15 31 33t26.5 37.5t18.5 41t7 44.5q0 46 -22 76.5t-58 49t-81 26t-90 7.5q-68 0 -137.5 -16
t-137.5 -43.5t-132 -64.5t-120 -79q5 -32 7 -63.5t2 -66.5h-10q-3 30 -7 59t-11 57q-75 -59 -141.5 -130.5t-124.5 -149.5q42 -8 85.5 -13t91.5 -9q42 -3 89 -3l53 64q43 48 101.5 100t125.5 95t140 70.5t145 27.5q51 0 87 -21t53 -70zM842 615q109 3 202 19t170 42
t137.5 59t104.5 70q0 40 -10 71q-14 40 -44 57.5t-72 17.5q-40 0 -82.5 -15t-85.5 -40t-85.5 -57t-81 -67t-72.5 -70t-61 -65q-5 -6 -10 -10.5t-10 -11.5zM1422 1380q5 8 12 11t15 3q17 0 28.5 -12.5t11.5 -26.5q0 -15 -15 -27l-98 -67l-81 -54l-9 9l53 63q23 26 42 49
t41 52z" />
    <glyph glyph-name="Ocircumflex" unicode="&#xd4;" horiz-adv-x="1372" 
d="M1576 979q0 -27 -8.5 -53t-23 -49t-33 -43.5t-37.5 -37.5q-2 -46 -15 -98q-13 -53 -37 -114t-56 -125q-57 -108 -134 -215.5t-170 -199.5q-59 -59 -125.5 -113t-141 -95t-156 -66t-168.5 -25q-86 0 -148 21.5t-102.5 60t-60 92t-19.5 118.5t18.5 139t52.5 152t82.5 157.5
t109.5 155.5q-81 22 -142.5 52t-109.5 65q-82 62 -119.5 135.5t-37.5 146.5q0 69 24 127.5t67 100.5t102 66t129 24q83 0 156.5 -30t132.5 -82t101 -121.5t62 -148.5q60 39 126 72t135 57t138.5 37.5t137.5 13.5q42 0 89 -7.5t87 -27.5t66 -54.5t28 -87.5zM1441 702
q11 42 14 78q-46 -37 -109 -70t-141.5 -57.5t-173 -39.5t-204.5 -17q-45 -54 -83 -109t-72 -116q-32 -59 -56 -120.5t-33 -133.5l-10 1q-1 11 -1.5 21.5t-0.5 21.5q0 63 16 118.5t41 113.5q25 57 53.5 106t64.5 97q-19 0 -38.5 1t-36.5 3q-52 3 -99.5 8.5t-89.5 14.5
q-56 -78 -100 -158.5t-74.5 -158.5t-47 -151.5t-16.5 -137.5q0 -56 13.5 -102.5t41.5 -80t71.5 -52t104.5 -18.5q80 0 158 24t150.5 64.5t139.5 94t126 112.5q94 94 170.5 199.5t130.5 208.5q32 62 55 121.5t36 113.5zM164 773q47 -36 109.5 -65t143.5 -50q70 87 153.5 164
t178.5 140q-23 71 -63.5 135.5t-96 114t-125 79t-150.5 29.5q-60 0 -114 -19t-95.5 -55t-66 -88t-24.5 -118q0 -69 35.5 -138.5t114.5 -128.5zM1465 881q7 -25 9 -59q16 15 31 33t26.5 37.5t18.5 41t7 44.5q0 46 -22 76.5t-58 49t-81 26t-90 7.5q-68 0 -137.5 -16
t-137.5 -43.5t-132 -64.5t-120 -79q5 -32 7 -63.5t2 -66.5h-10q-3 30 -7 59t-11 57q-75 -59 -141.5 -130.5t-124.5 -149.5q42 -8 85.5 -13t91.5 -9q42 -3 89 -3l53 64q43 48 101.5 100t125.5 95t140 70.5t145 27.5q51 0 87 -21t53 -70zM842 615q109 3 202 19t170 42
t137.5 59t104.5 70q0 40 -10 71q-14 40 -44 57.5t-72 17.5q-40 0 -82.5 -15t-85.5 -40t-85.5 -57t-81 -67t-72.5 -70t-61 -65q-5 -6 -10 -10.5t-10 -11.5zM1524 1268q5 -8 5 -17q0 -14 -12 -25.5t-28 -11.5q-9 0 -16 4.5t-9 15.5q-4 16 -8.5 36.5t-11.5 45.5l-11 41
l-14 -17.5t-14 -15.5q-26 -29 -46.5 -54t-44.5 -57q-12 -15 -27 -15q-14 0 -27 12t-13 28q0 15 15 27q23 16 48 33t48 32.5t42 29t31 21.5h-1q1 1 3 2q4 2 6 2q4 0 7 -6v1l25 -36q11 -17 25 -36t28 -40z" />
    <glyph glyph-name="Otilde" unicode="&#xd5;" horiz-adv-x="1388" 
d="M1576 939q0 -27 -8.5 -53t-23 -49t-33 -43.5t-37.5 -37.5q-2 -46 -15 -98q-13 -53 -37 -114t-56 -125q-57 -108 -134 -215.5t-170 -199.5q-59 -59 -125.5 -113t-141 -95t-156 -66t-168.5 -25q-86 0 -148 21.5t-102.5 60t-60 92t-19.5 118.5t18.5 139t52.5 152t82.5 157.5
t109.5 155.5q-81 22 -142.5 52t-109.5 65q-82 62 -119.5 135.5t-37.5 146.5q0 69 24 127.5t67 100.5t102 66t129 24q83 0 156.5 -30t132.5 -82t101 -121.5t62 -148.5q60 39 126 72t135 57t138.5 37.5t137.5 13.5q42 0 89 -7.5t87 -27.5t66 -54.5t28 -87.5zM1441 662
q11 42 14 78q-46 -37 -109 -70t-141.5 -57.5t-173 -39.5t-204.5 -17q-45 -54 -83 -109t-72 -116q-32 -59 -56 -120.5t-33 -133.5l-10 1q-1 11 -1.5 21.5t-0.5 21.5q0 63 16 118.5t41 113.5q25 57 53.5 106t64.5 97q-19 0 -38.5 1t-36.5 3q-52 3 -99.5 8.5t-89.5 14.5
q-56 -78 -100 -158.5t-74.5 -158.5t-47 -151.5t-16.5 -137.5q0 -56 13.5 -102.5t41.5 -80t71.5 -52t104.5 -18.5q80 0 158 24t150.5 64.5t139.5 94t126 112.5q94 94 170.5 199.5t130.5 208.5q32 62 55 121.5t36 113.5zM164 733q47 -36 109.5 -65t143.5 -50q70 87 153.5 164
t178.5 140q-23 71 -63.5 135.5t-96 114t-125 79t-150.5 29.5q-60 0 -114 -19t-95.5 -55t-66 -88t-24.5 -118q0 -69 35.5 -138.5t114.5 -128.5zM1465 841q7 -25 9 -59q16 15 31 33t26.5 37.5t18.5 41t7 44.5q0 46 -22 76.5t-58 49t-81 26t-90 7.5q-68 0 -137.5 -16
t-137.5 -43.5t-132 -64.5t-120 -79q5 -32 7 -63.5t2 -66.5h-10q-3 30 -7 59t-11 57q-75 -59 -141.5 -130.5t-124.5 -149.5q42 -8 85.5 -13t91.5 -9q42 -3 89 -3l53 64q43 48 101.5 100t125.5 95t140 70.5t145 27.5q51 0 87 -21t53 -70zM842 575q109 3 202 19t170 42
t137.5 59t104.5 70q0 40 -10 71q-14 40 -44 57.5t-72 17.5q-40 0 -82.5 -15t-85.5 -40t-85.5 -57t-81 -67t-72.5 -70t-61 -65q-5 -6 -10 -10.5t-10 -11.5zM1229 1190q11 12 23 25t25.5 23.5t28 17.5t31.5 7q30 0 68 -25q23 -14 43 -21.5t36 -7.5q20 0 35 13.5t25 37.5l17 -8
q-16 -38 -46.5 -66t-70.5 -28q-36 0 -71 22q-26 17 -43.5 25.5t-30.5 8.5q-17 0 -31 -12.5t-29 -26.5h1l-16 -15l-8 16z" />
    <glyph glyph-name="Odieresis" unicode="&#xd6;" horiz-adv-x="1372" 
d="M1576 979q0 -27 -8.5 -53t-23 -49t-33 -43.5t-37.5 -37.5q-2 -46 -15 -98q-13 -53 -37 -114t-56 -125q-57 -108 -134 -215.5t-170 -199.5q-59 -59 -125.5 -113t-141 -95t-156 -66t-168.5 -25q-86 0 -148 21.5t-102.5 60t-60 92t-19.5 118.5t18.5 139t52.5 152t82.5 157.5
t109.5 155.5q-81 22 -142.5 52t-109.5 65q-82 62 -119.5 135.5t-37.5 146.5q0 69 24 127.5t67 100.5t102 66t129 24q83 0 156.5 -30t132.5 -82t101 -121.5t62 -148.5q60 39 126 72t135 57t138.5 37.5t137.5 13.5q42 0 89 -7.5t87 -27.5t66 -54.5t28 -87.5zM1441 702
q11 42 14 78q-46 -37 -109 -70t-141.5 -57.5t-173 -39.5t-204.5 -17q-45 -54 -83 -109t-72 -116q-32 -59 -56 -120.5t-33 -133.5l-10 1q-1 11 -1.5 21.5t-0.5 21.5q0 63 16 118.5t41 113.5q25 57 53.5 106t64.5 97q-19 0 -38.5 1t-36.5 3q-52 3 -99.5 8.5t-89.5 14.5
q-56 -78 -100 -158.5t-74.5 -158.5t-47 -151.5t-16.5 -137.5q0 -56 13.5 -102.5t41.5 -80t71.5 -52t104.5 -18.5q80 0 158 24t150.5 64.5t139.5 94t126 112.5q94 94 170.5 199.5t130.5 208.5q32 62 55 121.5t36 113.5zM164 773q47 -36 109.5 -65t143.5 -50q70 87 153.5 164
t178.5 140q-23 71 -63.5 135.5t-96 114t-125 79t-150.5 29.5q-60 0 -114 -19t-95.5 -55t-66 -88t-24.5 -118q0 -69 35.5 -138.5t114.5 -128.5zM1465 881q7 -25 9 -59q16 15 31 33t26.5 37.5t18.5 41t7 44.5q0 46 -22 76.5t-58 49t-81 26t-90 7.5q-68 0 -137.5 -16
t-137.5 -43.5t-132 -64.5t-120 -79q5 -32 7 -63.5t2 -66.5h-10q-3 30 -7 59t-11 57q-75 -59 -141.5 -130.5t-124.5 -149.5q42 -8 85.5 -13t91.5 -9q42 -3 89 -3l53 64q43 48 101.5 100t125.5 95t140 70.5t145 27.5q51 0 87 -21t53 -70zM842 615q109 3 202 19t170 42
t137.5 59t104.5 70q0 40 -10 71q-14 40 -44 57.5t-72 17.5q-40 0 -82.5 -15t-85.5 -40t-85.5 -57t-81 -67t-72.5 -70t-61 -65q-5 -6 -10 -10.5t-10 -11.5zM1478 1351q21 0 35.5 -13t14.5 -33t-14.5 -33.5t-35.5 -13.5t-35.5 13.5t-14.5 33.5t14.5 33t35.5 13zM1298 1351
q21 0 35.5 -13t14.5 -33t-14.5 -33.5t-35.5 -13.5t-35.5 13.5t-14.5 33.5t14.5 33t35.5 13z" />
    <glyph glyph-name="Oslash" unicode="&#xd8;" horiz-adv-x="1087" 
d="M1281 1159l-84 -104q18 -4 36.5 -11.5t33 -19.5t23.5 -28t9 -36q0 -24 -10.5 -46.5t-27.5 -41.5q9 -26 9 -56q0 -47 -22 -108.5t-60 -130.5t-89 -140.5t-108 -138.5q-47 -53 -98.5 -103.5t-106 -95.5t-109.5 -82.5t-109.5 -65t-106.5 -42.5t-99 -15q-52 0 -92 9l-81 -101
l-29 23l72 89q-81 29 -117 90.5t-36 143.5q0 64 23 138t65.5 150.5t102.5 153t135 145.5q-60 -13 -117 -38.5t-108.5 -70t-95.5 -110t-77 -158.5l-14 1q37 117 89 196t112.5 127.5t128.5 72t139 30.5q69 55 148 105t166 87.5t181 59.5t194 22l100 123zM978 312
q59 67 109 137t86.5 135.5t57 124.5t20.5 105q0 12 -1 22t-4 20q-61 -57 -134 -82.5t-166 -30.5q-104 -128 -203 -252t-203 -252q36 9 71.5 26.5t68.5 40t63 49.5t56 55q46 50 74 96.5t28 74.5q0 14 -9.5 20t-21.5 6q-2 0 -5.5 -0.5t-12.5 -2.5v15q8 1 15 2t11 1
q20 0 37.5 -10t17.5 -37q0 -35 -30.5 -86t-82.5 -103v1q-30 -30 -65 -58.5t-74 -52t-80 -40t-82 -23.5l-230 -287q31 -10 73 -10q70 0 148.5 32t159.5 86.5t159.5 126t148.5 151.5zM171 106q0 -57 19 -99.5t62 -65.5q55 67 108.5 134t107.5 135q-57 0 -81.5 24.5t-24.5 66.5
t25.5 96.5t69.5 114.5t103 121.5t127 116.5q-5 0 -10 0.5t-10 0.5q-18 1 -36.5 1.5t-37.5 0.5q-16 0 -31 -0.5t-31 -1.5q-80 -75 -146 -160t-113.5 -170.5t-74 -166.5t-26.5 -148zM485 229q105 130 206 256.5t206 256.5h-8q-34 0 -70 1t-74 6q-70 -58 -132 -123.5t-108 -129
t-73 -119.5t-27 -94q0 -25 15.5 -39.5t50.5 -14.5h14zM573 787q37 -2 72 -5.5t70 -8.5q83 63 169 108t171 59l81 99q-78 -2 -153 -22.5t-145.5 -54t-137 -78.5t-127.5 -97zM1129 927q-17 0 -36 -3l-132 -162q75 5 144.5 29.5t133.5 84.5q-14 23 -40.5 37t-69.5 14zM1034 912
q-66 -18 -133 -56t-133 -89q67 -6 135 -6h8q33 42 61.5 75.5t61.5 75.5zM1280 960q0 16 -9 29t-22.5 23t-31 16t-33.5 9q-20 -25 -38 -45.5t-38 -46.5h2q3 0 6.5 0.5t6.5 0.5h8q45 -1 75 -15.5t46 -39.5q12 14 19.5 32.5t8.5 36.5z" />
    <glyph glyph-name="Ugrave" unicode="&#xd9;" horiz-adv-x="1863" 
d="M1592 956q0 -72 -26.5 -146.5t-67 -146.5t-89.5 -140.5t-95 -129.5q-21 -28 -40 -54t-36 -50q-35 -49 -64 -92.5t-51 -79.5t-34 -64t-12 -47t16.5 -26t36.5 -7q46 0 92 18.5t90 48.5t84.5 67.5t76.5 74.5q55 57 111 122t114 134q52 63 110.5 130t120 132.5t125 125
t126.5 107.5q69 49 147.5 92.5t161.5 75.5t169.5 50.5t172.5 18.5q107 0 209 -30.5t192 -97.5l-2 -16q-89 67 -192 95.5t-206 28.5q-89 0 -173 -19.5t-163 -54t-152 -80.5t-140 -100q-66 -56 -136 -133.5t-136.5 -164.5t-125.5 -178t-103.5 -174.5t-70.5 -152.5t-26 -113
q0 -47 27 -47q9 0 22 3t32 14l1 -15q-32 -20 -54 -26t-39 -6q-45 0 -66 20.5t-21 49.5q0 63 33 143t88 167t125 176.5t144 172t146 153.5t131 121q-58 -45 -119.5 -104.5t-121.5 -123.5t-116.5 -129t-104.5 -122q-64 -76 -119 -140.5t-107 -118.5q-38 -38 -80 -77t-89 -70
t-100 -50.5t-112 -19.5q-22 0 -42 4.5t-35.5 16t-24.5 30t-9 47.5q0 49 22.5 102t56.5 104.5t74 100.5t76 90q11 13 21.5 25t19.5 23l57 67q45 52 88.5 106.5t78.5 108t56.5 106t21.5 100.5q0 74 -38.5 127t-100.5 87.5t-139.5 50.5t-156.5 16q-128 0 -260.5 -38.5
t-256 -106.5t-232.5 -161t-190 -202t-128 -229.5t-47 -243.5q0 -58 19.5 -105.5t54 -81t83 -52t105.5 -18.5q69 0 138 19.5t134 55t123.5 84.5t104 108t76 125.5t41.5 136.5l10 -1v-12q0 -3 0.5 -5.5t0.5 -4.5q0 -74 -24.5 -144t-67.5 -132.5t-100.5 -114t-124.5 -89
t-139 -58.5t-143 -21q-66 0 -123.5 21t-99.5 60.5t-66.5 97t-24.5 131.5q0 132 44 260t122 242.5t184 212t231 168t262.5 110.5t278.5 40q99 0 185.5 -23t151 -68t101.5 -112t37 -156zM1830 1330q22 -29 41 -52t42 -49l53 -63l-10 -10l-80 55l-98 67q-15 12 -15 27
q0 14 11.5 26.5t28.5 12.5q8 0 15 -3t12 -11z" />
    <glyph glyph-name="Uacute" unicode="&#xda;" horiz-adv-x="1863" 
d="M1592 956q0 -72 -26.5 -146.5t-67 -146.5t-89.5 -140.5t-95 -129.5q-21 -28 -40 -54t-36 -50q-35 -49 -64 -92.5t-51 -79.5t-34 -64t-12 -47t16.5 -26t36.5 -7q46 0 92 18.5t90 48.5t84.5 67.5t76.5 74.5q55 57 111 122t114 134q52 63 110.5 130t120 132.5t125 125
t126.5 107.5q69 49 147.5 92.5t161.5 75.5t169.5 50.5t172.5 18.5q107 0 209 -30.5t192 -97.5l-2 -16q-89 67 -192 95.5t-206 28.5q-89 0 -173 -19.5t-163 -54t-152 -80.5t-140 -100q-66 -56 -136 -133.5t-136.5 -164.5t-125.5 -178t-103.5 -174.5t-70.5 -152.5t-26 -113
q0 -47 27 -47q9 0 22 3t32 14l1 -15q-32 -20 -54 -26t-39 -6q-45 0 -66 20.5t-21 49.5q0 63 33 143t88 167t125 176.5t144 172t146 153.5t131 121q-58 -45 -119.5 -104.5t-121.5 -123.5t-116.5 -129t-104.5 -122q-64 -76 -119 -140.5t-107 -118.5q-38 -38 -80 -77t-89 -70
t-100 -50.5t-112 -19.5q-22 0 -42 4.5t-35.5 16t-24.5 30t-9 47.5q0 49 22.5 102t56.5 104.5t74 100.5t76 90q11 13 21.5 25t19.5 23l57 67q45 52 88.5 106.5t78.5 108t56.5 106t21.5 100.5q0 74 -38.5 127t-100.5 87.5t-139.5 50.5t-156.5 16q-128 0 -260.5 -38.5
t-256 -106.5t-232.5 -161t-190 -202t-128 -229.5t-47 -243.5q0 -58 19.5 -105.5t54 -81t83 -52t105.5 -18.5q69 0 138 19.5t134 55t123.5 84.5t104 108t76 125.5t41.5 136.5l10 -1v-12q0 -3 0.5 -5.5t0.5 -4.5q0 -74 -24.5 -144t-67.5 -132.5t-100.5 -114t-124.5 -89
t-139 -58.5t-143 -21q-66 0 -123.5 21t-99.5 60.5t-66.5 97t-24.5 131.5q0 132 44 260t122 242.5t184 212t231 168t262.5 110.5t278.5 40q99 0 185.5 -23t151 -68t101.5 -112t37 -156zM1927 1330q5 8 12 11t15 3q17 0 28.5 -12.5t11.5 -26.5q0 -15 -15 -27l-98 -67l-81 -54
l-9 9l53 63q23 26 42 49t41 52z" />
    <glyph glyph-name="Ucircumflex" unicode="&#xdb;" horiz-adv-x="1863" 
d="M1592 956q0 -72 -26.5 -146.5t-67 -146.5t-89.5 -140.5t-95 -129.5q-21 -28 -40 -54t-36 -50q-35 -49 -64 -92.5t-51 -79.5t-34 -64t-12 -47t16.5 -26t36.5 -7q46 0 92 18.5t90 48.5t84.5 67.5t76.5 74.5q55 57 111 122t114 134q52 63 110.5 130t120 132.5t125 125
t126.5 107.5q69 49 147.5 92.5t161.5 75.5t169.5 50.5t172.5 18.5q107 0 209 -30.5t192 -97.5l-2 -16q-89 67 -192 95.5t-206 28.5q-89 0 -173 -19.5t-163 -54t-152 -80.5t-140 -100q-66 -56 -136 -133.5t-136.5 -164.5t-125.5 -178t-103.5 -174.5t-70.5 -152.5t-26 -113
q0 -47 27 -47q9 0 22 3t32 14l1 -15q-32 -20 -54 -26t-39 -6q-45 0 -66 20.5t-21 49.5q0 63 33 143t88 167t125 176.5t144 172t146 153.5t131 121q-58 -45 -119.5 -104.5t-121.5 -123.5t-116.5 -129t-104.5 -122q-64 -76 -119 -140.5t-107 -118.5q-38 -38 -80 -77t-89 -70
t-100 -50.5t-112 -19.5q-22 0 -42 4.5t-35.5 16t-24.5 30t-9 47.5q0 49 22.5 102t56.5 104.5t74 100.5t76 90q11 13 21.5 25t19.5 23l57 67q45 52 88.5 106.5t78.5 108t56.5 106t21.5 100.5q0 74 -38.5 127t-100.5 87.5t-139.5 50.5t-156.5 16q-128 0 -260.5 -38.5
t-256 -106.5t-232.5 -161t-190 -202t-128 -229.5t-47 -243.5q0 -58 19.5 -105.5t54 -81t83 -52t105.5 -18.5q69 0 138 19.5t134 55t123.5 84.5t104 108t76 125.5t41.5 136.5l10 -1v-12q0 -3 0.5 -5.5t0.5 -4.5q0 -74 -24.5 -144t-67.5 -132.5t-100.5 -114t-124.5 -89
t-139 -58.5t-143 -21q-66 0 -123.5 21t-99.5 60.5t-66.5 97t-24.5 131.5q0 132 44 260t122 242.5t184 212t231 168t262.5 110.5t278.5 40q99 0 185.5 -23t151 -68t101.5 -112t37 -156zM1999 1228q5 -8 5 -17q0 -14 -12 -25.5t-28 -11.5q-9 0 -16 4.5t-9 15.5
q-4 16 -8.5 36.5t-11.5 45.5l-11 41l-14 -17.5t-14 -15.5q-26 -29 -46.5 -54t-44.5 -57q-12 -15 -27 -15q-14 0 -27 12t-13 28q0 15 15 27q23 16 48 33t48 32.5t42 29t31 21.5h-1q1 1 3 2q4 2 6 2q4 0 7 -6v1l25 -36q11 -17 25 -36t28 -40z" />
    <glyph glyph-name="Udieresis" unicode="&#xdc;" horiz-adv-x="1863" 
d="M1592 956q0 -72 -26.5 -146.5t-67 -146.5t-89.5 -140.5t-95 -129.5q-21 -28 -40 -54t-36 -50q-35 -49 -64 -92.5t-51 -79.5t-34 -64t-12 -47t16.5 -26t36.5 -7q46 0 92 18.5t90 48.5t84.5 67.5t76.5 74.5q55 57 111 122t114 134q52 63 110.5 130t120 132.5t125 125
t126.5 107.5q69 49 147.5 92.5t161.5 75.5t169.5 50.5t172.5 18.5q107 0 209 -30.5t192 -97.5l-2 -16q-89 67 -192 95.5t-206 28.5q-89 0 -173 -19.5t-163 -54t-152 -80.5t-140 -100q-66 -56 -136 -133.5t-136.5 -164.5t-125.5 -178t-103.5 -174.5t-70.5 -152.5t-26 -113
q0 -47 27 -47q9 0 22 3t32 14l1 -15q-32 -20 -54 -26t-39 -6q-45 0 -66 20.5t-21 49.5q0 63 33 143t88 167t125 176.5t144 172t146 153.5t131 121q-58 -45 -119.5 -104.5t-121.5 -123.5t-116.5 -129t-104.5 -122q-64 -76 -119 -140.5t-107 -118.5q-38 -38 -80 -77t-89 -70
t-100 -50.5t-112 -19.5q-22 0 -42 4.5t-35.5 16t-24.5 30t-9 47.5q0 49 22.5 102t56.5 104.5t74 100.5t76 90q11 13 21.5 25t19.5 23l57 67q45 52 88.5 106.5t78.5 108t56.5 106t21.5 100.5q0 74 -38.5 127t-100.5 87.5t-139.5 50.5t-156.5 16q-128 0 -260.5 -38.5
t-256 -106.5t-232.5 -161t-190 -202t-128 -229.5t-47 -243.5q0 -58 19.5 -105.5t54 -81t83 -52t105.5 -18.5q69 0 138 19.5t134 55t123.5 84.5t104 108t76 125.5t41.5 136.5l10 -1v-12q0 -3 0.5 -5.5t0.5 -4.5q0 -74 -24.5 -144t-67.5 -132.5t-100.5 -114t-124.5 -89
t-139 -58.5t-143 -21q-66 0 -123.5 21t-99.5 60.5t-66.5 97t-24.5 131.5q0 132 44 260t122 242.5t184 212t231 168t262.5 110.5t278.5 40q99 0 185.5 -23t151 -68t101.5 -112t37 -156zM2003 1281q21 0 35.5 -13t14.5 -33t-14.5 -33.5t-35.5 -13.5t-35.5 13.5t-14.5 33.5
t14.5 33t35.5 13zM1823 1281q21 0 35.5 -13t14.5 -33t-14.5 -33.5t-35.5 -13.5t-35.5 13.5t-14.5 33.5t14.5 33t35.5 13z" />
    <glyph glyph-name="germandbls" unicode="&#xdf;" horiz-adv-x="988" 
d="M1019 745q0 -42 -20 -86t-59 -80.5t-97 -60t-134 -23.5q-7 0 -7.5 -0.5l-0.5 -0.5h-1t-8 1q31 -12 61.5 -29.5t53.5 -41t37.5 -53.5t14.5 -68q0 -64 -43 -130.5t-118.5 -120.5t-177.5 -88.5t-220 -34.5q-57 0 -113 5.5t-110 13.5q-54 7 -110 13t-111 6q-43 0 -82.5 -12.5
t-68.5 -43.5l-13 13q34 37 81.5 64.5t99.5 27.5q57 0 107.5 -10t98.5 -23q51 -13 104.5 -24t116.5 -11q96 0 181.5 32.5t150 84t102 115.5t37.5 128q0 28 -9.5 56t-28.5 54t-48 47.5t-67 36.5q-5 2 -14.5 7t-9.5 10q0 3 2 6t7 3q4 0 6.5 -0.5t5.5 -1.5q1 -1 3.5 -1.5
t3.5 -0.5q19 -5 36 -6t33 -1q63 0 110 21.5t79 55t48.5 73.5t16.5 78q0 23 -6.5 44t-19 36.5t-32 25t-45.5 9.5q-50 0 -101.5 -21.5t-99 -54.5t-88.5 -73t-70 -78q-58 -75 -105 -160t-89 -171q-40 -78 -77 -145.5t-84 -133.5h-130l20 24q49 65 95 133.5t89 134.5
q37 56 69.5 104t65.5 93q-11 -11 -23 -21.5t-24 -21.5q-57 -51 -121 -101t-132 -94l-9 17q66 42 130 92t120 100q29 26 58 55l58 58q51 52 104.5 103.5t112 92t122.5 66t138 25.5q37 0 65 -11t46.5 -30t27.5 -44t9 -53z" />
    <glyph glyph-name="agrave" unicode="&#xe0;" horiz-adv-x="545" 
d="M462 148q20 23 41.5 49t41.5 51l13 -15q-20 -25 -40.5 -51.5t-40.5 -46.5q-26 -29 -52.5 -54.5t-52.5 -44.5t-51 -30t-47 -11q-40 0 -55 17t-15 44q0 21 9 47.5t22 53.5q-29 -32 -57 -60.5t-56 -50.5q-31 -24 -57.5 -38.5t-49.5 -14.5q-35 0 -50 24.5t-15 59.5
q0 25 8 56.5t21 64t29.5 64.5t34.5 59q28 37 62.5 70.5t71.5 59t76 40.5t76 15q30 0 46.5 -14.5t16.5 -43.5q0 -14 -3 -32l60 88h128l-115 -152q-75 -99 -145 -201q-8 -11 -18 -26.5t-19 -32t-15.5 -32t-6.5 -27.5q0 -17 21 -17q19 0 40.5 10t45 28t48 42t49.5 52zM111 61
q32 26 66 61t67 76q28 32 52 69t43 73q12 23 23 51t11 57q0 12 -6 24t-21 12q-22 0 -51.5 -23t-60.5 -57t-61 -73t-53 -71q-26 -36 -48 -71.5t-38 -66.5t-25.5 -55.5t-9.5 -39.5q0 -14 16 -14q18 0 42.5 12.5t53.5 35.5zM349 703q22 -29 41 -52t42 -49l53 -63l-10 -10
l-80 55l-98 67q-15 12 -15 27q0 14 11.5 26.5t28.5 12.5q8 0 15 -3t12 -11z" />
    <glyph glyph-name="aacute" unicode="&#xe1;" horiz-adv-x="545" 
d="M426 703q5 8 12 11t15 3q17 0 28.5 -12.5t11.5 -26.5q0 -15 -15 -27l-98 -67l-81 -54l-9 9l53 63q23 26 42 49t41 52zM462 148q20 23 41.5 49t41.5 51l13 -15q-20 -25 -40.5 -51.5t-40.5 -46.5q-26 -29 -52.5 -54.5t-52.5 -44.5t-51 -30t-47 -11q-40 0 -55 17t-15 44
q0 21 9 47.5t22 53.5q-29 -32 -57 -60.5t-56 -50.5q-31 -24 -57.5 -38.5t-49.5 -14.5q-35 0 -50 24.5t-15 59.5q0 25 8 56.5t21 64t29.5 64.5t34.5 59q28 37 62.5 70.5t71.5 59t76 40.5t76 15q30 0 46.5 -14.5t16.5 -43.5q0 -14 -3 -32l60 88h128l-115 -152
q-75 -99 -145 -201q-8 -11 -18 -26.5t-19 -32t-15.5 -32t-6.5 -27.5q0 -17 21 -17q19 0 40.5 10t45 28t48 42t49.5 52zM111 61q32 26 66 61t67 76q28 32 52 69t43 73q12 23 23 51t11 57q0 12 -6 24t-21 12q-22 0 -51.5 -23t-60.5 -57t-61 -73t-53 -71q-26 -36 -48 -71.5
t-38 -66.5t-25.5 -55.5t-9.5 -39.5q0 -14 16 -14q18 0 42.5 12.5t53.5 35.5z" />
    <glyph glyph-name="acircumflex" unicode="&#xe2;" horiz-adv-x="545" 
d="M462 148q20 23 41.5 49t41.5 51l13 -15q-20 -25 -40.5 -51.5t-40.5 -46.5q-26 -29 -52.5 -54.5t-52.5 -44.5t-51 -30t-47 -11q-40 0 -55 17t-15 44q0 21 9 47.5t22 53.5q-29 -32 -57 -60.5t-56 -50.5q-31 -24 -57.5 -38.5t-49.5 -14.5q-35 0 -50 24.5t-15 59.5
q0 25 8 56.5t21 64t29.5 64.5t34.5 59q28 37 62.5 70.5t71.5 59t76 40.5t76 15q30 0 46.5 -14.5t16.5 -43.5q0 -14 -3 -32l60 88h128l-115 -152q-75 -99 -145 -201q-8 -11 -18 -26.5t-19 -32t-15.5 -32t-6.5 -27.5q0 -17 21 -17q19 0 40.5 10t45 28t48 42t49.5 52zM111 61
q32 26 66 61t67 76q28 32 52 69t43 73q12 23 23 51t11 57q0 12 -6 24t-21 12q-22 0 -51.5 -23t-60.5 -57t-61 -73t-53 -71q-26 -36 -48 -71.5t-38 -66.5t-25.5 -55.5t-9.5 -39.5q0 -14 16 -14q18 0 42.5 12.5t53.5 35.5zM539 600q5 -8 5 -17q0 -14 -12 -25.5t-28 -11.5
q-9 0 -16 4.5t-9 15.5q-4 16 -8.5 36.5t-11.5 45.5l-11 41l-14 -17.5t-14 -15.5q-26 -29 -46.5 -54t-44.5 -57q-12 -15 -27 -15q-14 0 -27 12t-13 28q0 15 15 27q23 16 48 33t48 32.5t42 29t31 21.5h-1q1 1 3 2q4 2 6 2q4 0 7 -6v1l25 -36q11 -17 25 -36t28 -40z" />
    <glyph glyph-name="atilde" unicode="&#xe3;" horiz-adv-x="545" 
d="M247 591q11 12 23 25t25.5 23.5t28 17.5t31.5 7q30 0 68 -25q23 -14 43 -21.5t36 -7.5q20 0 35 13.5t25 37.5l17 -8q-16 -38 -46.5 -66t-70.5 -28q-36 0 -71 22q-26 17 -43.5 25.5t-30.5 8.5q-17 0 -31 -12.5t-29 -26.5h1l-16 -15l-8 16zM462 148q20 23 41.5 49t41.5 51
l13 -15q-20 -25 -40.5 -51.5t-40.5 -46.5q-26 -29 -52.5 -54.5t-52.5 -44.5t-51 -30t-47 -11q-40 0 -55 17t-15 44q0 21 9 47.5t22 53.5q-29 -32 -57 -60.5t-56 -50.5q-31 -24 -57.5 -38.5t-49.5 -14.5q-35 0 -50 24.5t-15 59.5q0 25 8 56.5t21 64t29.5 64.5t34.5 59
q28 37 62.5 70.5t71.5 59t76 40.5t76 15q30 0 46.5 -14.5t16.5 -43.5q0 -14 -3 -32l60 88h128l-115 -152q-75 -99 -145 -201q-8 -11 -18 -26.5t-19 -32t-15.5 -32t-6.5 -27.5q0 -17 21 -17q19 0 40.5 10t45 28t48 42t49.5 52zM111 61q32 26 66 61t67 76q28 32 52 69t43 73
q12 23 23 51t11 57q0 12 -6 24t-21 12q-22 0 -51.5 -23t-60.5 -57t-61 -73t-53 -71q-26 -36 -48 -71.5t-38 -66.5t-25.5 -55.5t-9.5 -39.5q0 -14 16 -14q18 0 42.5 12.5t53.5 35.5z" />
    <glyph glyph-name="adieresis" unicode="&#xe4;" horiz-adv-x="545" 
d="M336 670q21 0 35.5 -13t14.5 -33t-14.5 -33.5t-35.5 -13.5t-35.5 13.5t-14.5 33.5t14.5 33t35.5 13zM516 670q21 0 35.5 -13t14.5 -33t-14.5 -33.5t-35.5 -13.5t-35.5 13.5t-14.5 33.5t14.5 33t35.5 13zM462 148q20 23 41.5 49t41.5 51l13 -15q-20 -25 -40.5 -51.5
t-40.5 -46.5q-26 -29 -52.5 -54.5t-52.5 -44.5t-51 -30t-47 -11q-40 0 -55 17t-15 44q0 21 9 47.5t22 53.5q-29 -32 -57 -60.5t-56 -50.5q-31 -24 -57.5 -38.5t-49.5 -14.5q-35 0 -50 24.5t-15 59.5q0 25 8 56.5t21 64t29.5 64.5t34.5 59q28 37 62.5 70.5t71.5 59t76 40.5
t76 15q30 0 46.5 -14.5t16.5 -43.5q0 -14 -3 -32l60 88h128l-115 -152q-75 -99 -145 -201q-8 -11 -18 -26.5t-19 -32t-15.5 -32t-6.5 -27.5q0 -17 21 -17q19 0 40.5 10t45 28t48 42t49.5 52zM111 61q32 26 66 61t67 76q28 32 52 69t43 73q12 23 23 51t11 57q0 12 -6 24
t-21 12q-22 0 -51.5 -23t-60.5 -57t-61 -73t-53 -71q-26 -36 -48 -71.5t-38 -66.5t-25.5 -55.5t-9.5 -39.5q0 -14 16 -14q18 0 42.5 12.5t53.5 35.5z" />
    <glyph glyph-name="aring" unicode="&#xe5;" horiz-adv-x="545" 
d="M345 614q0 30 20 49t49 19q33 0 51.5 -20.5t18.5 -47.5t-20.5 -48t-49.5 -21q-27 0 -48 18.5t-21 50.5zM413 587q13 0 20 8t7 19q0 13 -8.5 20t-18.5 7q-11 0 -18 -7.5t-7 -19.5q0 -11 6.5 -19t18.5 -8zM462 148q20 23 41.5 49t41.5 51l13 -15q-20 -25 -40.5 -51.5
t-40.5 -46.5q-26 -29 -52.5 -54.5t-52.5 -44.5t-51 -30t-47 -11q-40 0 -55 17t-15 44q0 21 9 47.5t22 53.5q-29 -32 -57 -60.5t-56 -50.5q-31 -24 -57.5 -38.5t-49.5 -14.5q-35 0 -50 24.5t-15 59.5q0 25 8 56.5t21 64t29.5 64.5t34.5 59q28 37 62.5 70.5t71.5 59t76 40.5
t76 15q30 0 46.5 -14.5t16.5 -43.5q0 -14 -3 -32l60 88h128l-115 -152q-75 -99 -145 -201q-8 -11 -18 -26.5t-19 -32t-15.5 -32t-6.5 -27.5q0 -17 21 -17q19 0 40.5 10t45 28t48 42t49.5 52zM111 61q32 26 66 61t67 76q28 32 52 69t43 73q12 23 23 51t11 57q0 12 -6 24
t-21 12q-22 0 -51.5 -23t-60.5 -57t-61 -73t-53 -71q-26 -36 -48 -71.5t-38 -66.5t-25.5 -55.5t-9.5 -39.5q0 -14 16 -14q18 0 42.5 12.5t53.5 35.5z" />
    <glyph glyph-name="ae" unicode="&#xe6;" horiz-adv-x="834" 
d="M111 61q32 26 66 61t67 76q28 32 52 69t43 73q12 23 23 51t11 57q0 12 -6 24t-21 12q-22 0 -51.5 -23t-60.5 -57t-61 -73t-53 -71q-26 -36 -48 -71.5t-38 -66.5t-25.5 -55.5t-9.5 -39.5q0 -14 16 -14q18 0 42.5 12.5t53.5 35.5zM806 484q-28 0 -65.5 -28.5t-72.5 -68.5
q-31 -35 -58 -69t-47 -62q42 5 87.5 25.5t84.5 48.5q13 10 30.5 25t33.5 32.5t27.5 36t11.5 33.5q0 14 -10 20.5t-22 6.5zM502 -7q-33 0 -60.5 17.5t-38.5 50.5q-35 -31 -67 -48.5t-62 -17.5q-40 0 -55 17t-15 44q0 21 9 47.5t22 53.5q-29 -32 -57 -60.5t-56 -50.5
q-31 -24 -57.5 -38.5t-49.5 -14.5q-35 0 -50 24.5t-15 59.5q0 25 8 56.5t21 64t29.5 64.5t34.5 59q28 37 62.5 70.5t71.5 59t76 40.5t76 15q30 0 46.5 -14.5t16.5 -43.5q0 -14 -3 -32l60 88h128l-115 -152q-75 -99 -145 -201q-8 -11 -18 -26.5t-19 -32t-15.5 -32t-6.5 -27.5
q0 -17 21 -17q27 0 57.5 18.5t62.5 48.5v11q0 57 28.5 121.5t76.5 123.5q28 34 61 64t68.5 53t72 36.5t70.5 13.5q12 0 26 -1.5t26.5 -6t20.5 -14.5t8 -26q0 -20 -12 -41t-29.5 -40.5t-37 -36t-33.5 -26.5q-45 -32 -96.5 -54.5t-98.5 -23.5q-20 -28 -36.5 -55t-29 -50.5
t-19.5 -43t-7 -32.5q0 -22 12.5 -32t33.5 -10q45 0 90.5 22t88.5 56t81.5 76t69.5 81l13 -15q-31 -39 -70 -81.5t-83.5 -77.5t-93.5 -58t-98 -23z" />
    <glyph glyph-name="ccedilla" unicode="&#xe7;" horiz-adv-x="408" 
d="M65 -7q-19 2 -39 9t-36 20t-26 31.5t-10 44.5q0 48 23.5 105.5t61.5 110.5q28 38 63.5 73t74 61.5t79 42t78.5 15.5q12 0 25.5 -1.5t25 -6.5t19 -15t7.5 -27q0 -12 -5 -25q-8 -18 -28.5 -45.5t-43.5 -53.5q-6 -7 -16 -17.5t-22 -21t-23.5 -18t-19.5 -7.5q-9 0 -9 13
q0 22 13.5 45t27.5 42q23 29 51 50.5t53 23.5q3 9 3 16q0 14 -12.5 20t-27.5 6q-23 0 -53 -22.5t-61.5 -56.5t-61.5 -72.5t-53 -69.5t-43 -61.5t-35 -58t-23.5 -50.5t-8.5 -39q0 -11 6.5 -18.5t16 -12.5t21 -7.5t21.5 -2.5q45 0 90.5 22t88.5 56t81.5 76t69.5 81l13 -15
q-31 -38 -69 -79.5t-81 -76.5t-89.5 -58.5t-94.5 -25.5v-18q36 -4 62.5 -19.5t26.5 -50.5q0 -28 -20 -48.5t-49 -20.5q-26 0 -41.5 9.5t-15.5 17.5q0 15 18 15q11 0 20 -6.5t19 -14.5l6 -4q13 1 23 9.5t10 23.5q0 24 -25 33t-56 11v63z" />
    <glyph glyph-name="egrave" unicode="&#xe8;" horiz-adv-x="408" 
d="M333 703q22 -29 41 -52t42 -49l53 -63l-10 -10l-80 55l-98 67q-15 12 -15 27q0 14 11.5 26.5t28.5 12.5q8 0 15 -3t12 -11zM13 54q0 -11 6.5 -18.5t16 -12.5t21 -7.5t21.5 -2.5q45 0 90.5 22t88.5 56t81.5 76t69.5 81l13 -15q-31 -39 -70 -81.5t-83.5 -77.5t-93.5 -58
t-98 -23q-21 0 -42.5 6t-39 18.5t-29 32.5t-11.5 48q0 55 28.5 118.5t76.5 122.5q28 34 61 64t68.5 53t72 36.5t70.5 13.5q12 0 26 -1.5t26.5 -6t20.5 -14.5t8 -26q0 -20 -12 -41t-29.5 -40.5t-37 -36t-33.5 -26.5q-45 -32 -96.5 -54.5t-98.5 -23.5q-20 -28 -36.5 -55
t-29 -50.5t-19.5 -43.5t-7 -33zM361 484q-28 0 -65.5 -28.5t-72.5 -68.5q-31 -35 -58 -69t-47 -62q42 5 87.5 25.5t84.5 48.5q13 10 30.5 25t33.5 32.5t27.5 36t11.5 33.5q0 14 -10 20.5t-22 6.5z" />
    <glyph glyph-name="eacute" unicode="&#xe9;" horiz-adv-x="408" 
d="M374 703q5 8 12 11t15 3q17 0 28.5 -12.5t11.5 -26.5q0 -15 -15 -27l-98 -67l-81 -54l-9 9l53 63q23 26 42 49t41 52zM13 54q0 -11 6.5 -18.5t16 -12.5t21 -7.5t21.5 -2.5q45 0 90.5 22t88.5 56t81.5 76t69.5 81l13 -15q-31 -39 -70 -81.5t-83.5 -77.5t-93.5 -58t-98 -23
q-21 0 -42.5 6t-39 18.5t-29 32.5t-11.5 48q0 55 28.5 118.5t76.5 122.5q28 34 61 64t68.5 53t72 36.5t70.5 13.5q12 0 26 -1.5t26.5 -6t20.5 -14.5t8 -26q0 -20 -12 -41t-29.5 -40.5t-37 -36t-33.5 -26.5q-45 -32 -96.5 -54.5t-98.5 -23.5q-20 -28 -36.5 -55t-29 -50.5
t-19.5 -43.5t-7 -33zM361 484q-28 0 -65.5 -28.5t-72.5 -68.5q-31 -35 -58 -69t-47 -62q42 5 87.5 25.5t84.5 48.5q13 10 30.5 25t33.5 32.5t27.5 36t11.5 33.5q0 14 -10 20.5t-22 6.5z" />
    <glyph glyph-name="ecircumflex" unicode="&#xea;" horiz-adv-x="408" 
d="M471 600q5 -8 5 -17q0 -14 -12 -25.5t-28 -11.5q-9 0 -16 4.5t-9 15.5q-4 16 -8.5 36.5t-11.5 45.5l-11 41l-14 -17.5t-14 -15.5q-26 -29 -46.5 -54t-44.5 -57q-12 -15 -27 -15q-14 0 -27 12t-13 28q0 15 15 27q23 16 48 33t48 32.5t42 29t31 21.5h-1q1 1 3 2q4 2 6 2
q4 0 7 -6v1l25 -36q11 -17 25 -36t28 -40zM13 54q0 -11 6.5 -18.5t16 -12.5t21 -7.5t21.5 -2.5q45 0 90.5 22t88.5 56t81.5 76t69.5 81l13 -15q-31 -39 -70 -81.5t-83.5 -77.5t-93.5 -58t-98 -23q-21 0 -42.5 6t-39 18.5t-29 32.5t-11.5 48q0 55 28.5 118.5t76.5 122.5
q28 34 61 64t68.5 53t72 36.5t70.5 13.5q12 0 26 -1.5t26.5 -6t20.5 -14.5t8 -26q0 -20 -12 -41t-29.5 -40.5t-37 -36t-33.5 -26.5q-45 -32 -96.5 -54.5t-98.5 -23.5q-20 -28 -36.5 -55t-29 -50.5t-19.5 -43.5t-7 -33zM361 484q-28 0 -65.5 -28.5t-72.5 -68.5
q-31 -35 -58 -69t-47 -62q42 5 87.5 25.5t84.5 48.5q13 10 30.5 25t33.5 32.5t27.5 36t11.5 33.5q0 14 -10 20.5t-22 6.5z" />
    <glyph glyph-name="edieresis" unicode="&#xeb;" horiz-adv-x="408" 
d="M275 670q21 0 35.5 -13t14.5 -33t-14.5 -33.5t-35.5 -13.5t-35.5 13.5t-14.5 33.5t14.5 33t35.5 13zM455 670q21 0 35.5 -13t14.5 -33t-14.5 -33.5t-35.5 -13.5t-35.5 13.5t-14.5 33.5t14.5 33t35.5 13zM13 54q0 -11 6.5 -18.5t16 -12.5t21 -7.5t21.5 -2.5q45 0 90.5 22
t88.5 56t81.5 76t69.5 81l13 -15q-31 -39 -70 -81.5t-83.5 -77.5t-93.5 -58t-98 -23q-21 0 -42.5 6t-39 18.5t-29 32.5t-11.5 48q0 55 28.5 118.5t76.5 122.5q28 34 61 64t68.5 53t72 36.5t70.5 13.5q12 0 26 -1.5t26.5 -6t20.5 -14.5t8 -26q0 -20 -12 -41t-29.5 -40.5
t-37 -36t-33.5 -26.5q-45 -32 -96.5 -54.5t-98.5 -23.5q-20 -28 -36.5 -55t-29 -50.5t-19.5 -43.5t-7 -33zM361 484q-28 0 -65.5 -28.5t-72.5 -68.5q-31 -35 -58 -69t-47 -62q42 5 87.5 25.5t84.5 48.5q13 10 30.5 25t33.5 32.5t27.5 36t11.5 33.5q0 14 -10 20.5t-22 6.5z
" />
    </font>
</defs>
</svg>
